  0
SECTION
  2
HEADER
  9
$ACADVER
  1
AC1014
  9
$ACADMAINTVER
 70
     9
  9
$DWGCODEPAGE
  3
ANSI_1252
  9
$INSBASE
 10
0.0
 20
0.0
 30
0.0
  9
$EXTMIN
 10
-10.98950273254444
 20
-9.421545028686523
 30
-1.0
  9
$EXTMAX
 10
12.93063622118535
 20
9.39705
 30
1.966543180497742
  9
$LIMMIN
 10
0.0
 20
0.0
  9
$LIMMAX
 10
12.0
 20
9.0
  9
$ORTHOMODE
 70
     0
  9
$REGENMODE
 70
     1
  9
$FILLMODE
 70
     1
  9
$QTEXTMODE
 70
     0
  9
$MIRRTEXT
 70
     1
  9
$DRAGMODE
 70
     2
  9
$LTSCALE
 40
1.0
  9
$OSMODE
 70
    37
  9
$ATTMODE
 70
     1
  9
$TEXTSIZE
 40
0.2
  9
$TRACEWID
 40
0.05
  9
$TEXTSTYLE
  7
STANDARD
  9
$CLAYER
  8
0
  9
$CELTYPE
  6
BYLAYER
  9
$CECOLOR
 62
   256
  9
$CELTSCALE
 40
1.0
  9
$DELOBJ
 70
     1
  9
$DISPSILH
 70
     0
  9
$DIMSCALE
 40
1.0
  9
$DIMASZ
 40
0.18
  9
$DIMEXO
 40
0.0625
  9
$DIMDLI
 40
0.38
  9
$DIMRND
 40
0.0
  9
$DIMDLE
 40
0.0
  9
$DIMEXE
 40
0.18
  9
$DIMTP
 40
0.0
  9
$DIMTM
 40
0.0
  9
$DIMTXT
 40
0.18
  9
$DIMCEN
 40
0.09
  9
$DIMTSZ
 40
0.0
  9
$DIMTOL
 70
     0
  9
$DIMLIM
 70
     0
  9
$DIMTIH
 70
     1
  9
$DIMTOH
 70
     1
  9
$DIMSE1
 70
     0
  9
$DIMSE2
 70
     0
  9
$DIMTAD
 70
     0
  9
$DIMZIN
 70
     0
  9
$DIMBLK
  1

  9
$DIMASO
 70
     1
  9
$DIMSHO
 70
     1
  9
$DIMPOST
  1

  9
$DIMAPOST
  1

  9
$DIMALT
 70
     0
  9
$DIMALTD
 70
     2
  9
$DIMALTF
 40
25.4
  9
$DIMLFAC
 40
1.0
  9
$DIMTOFL
 70
     0
  9
$DIMTVP
 40
0.0
  9
$DIMTIX
 70
     0
  9
$DIMSOXD
 70
     0
  9
$DIMSAH
 70
     0
  9
$DIMBLK1
  1

  9
$DIMBLK2
  1

  9
$DIMSTYLE
  2
STANDARD
  9
$DIMCLRD
 70
     0
  9
$DIMCLRE
 70
     0
  9
$DIMCLRT
 70
     0
  9
$DIMTFAC
 40
1.0
  9
$DIMGAP
 40
0.09
  9
$DIMJUST
 70
     0
  9
$DIMSD1
 70
     0
  9
$DIMSD2
 70
     0
  9
$DIMTOLJ
 70
     1
  9
$DIMTZIN
 70
     0
  9
$DIMALTZ
 70
     0
  9
$DIMALTTZ
 70
     0
  9
$DIMFIT
 70
     3
  9
$DIMUPT
 70
     0
  9
$DIMUNIT
 70
     2
  9
$DIMDEC
 70
     4
  9
$DIMTDEC
 70
     4
  9
$DIMALTU
 70
     2
  9
$DIMALTTD
 70
     2
  9
$DIMTXSTY
  7
STANDARD
  9
$DIMAUNIT
 70
     0
  9
$LUNITS
 70
     2
  9
$LUPREC
 70
     4
  9
$SKETCHINC
 40
0.1
  9
$FILLETRAD
 40
0.5
  9
$AUNITS
 70
     0
  9
$AUPREC
 70
     0
  9
$MENU
  1
.
  9
$ELEVATION
 40
0.0
  9
$PELEVATION
 40
0.0
  9
$THICKNESS
 40
0.0
  9
$LIMCHECK
 70
     0
  9
$CHAMFERA
 40
0.5
  9
$CHAMFERB
 40
0.5
  9
$CHAMFERC
 40
1.0
  9
$CHAMFERD
 40
0.0
  9
$SKPOLY
 70
     0
  9
$TDCREATE
 40
2305814.146956019
  9
$TDUPDATE
 40
2305814.14695603
  9
$TDINDWG
 40
0.0000000116
  9
$TDUSRTIMER
 40
0.0000000116
  9
$USRTIMER
 70
     1
  9
$ANGBASE
 50
0.0
  9
$ANGDIR
 70
     0
  9
$PDMODE
 70
     0
  9
$PDSIZE
 40
0.0
  9
$PLINEWID
 40
0.0
  9
$COORDS
 70
     1
  9
$SPLFRAME
 70
     0
  9
$SPLINETYPE
 70
     6
  9
$SPLINESEGS
 70
     8
  9
$ATTDIA
 70
     0
  9
$ATTREQ
 70
     1
  9
$HANDLING
 70
     1
  9
$HANDSEED
  5
16A
  9
$SURFTAB1
 70
     6
  9
$SURFTAB2
 70
     6
  9
$SURFTYPE
 70
     6
  9
$SURFU
 70
     6
  9
$SURFV
 70
     6
  9
$UCSNAME
  2

  9
$UCSORG
 10
0.0
 20
0.0
 30
0.0
  9
$UCSXDIR
 10
1.0
 20
0.0
 30
0.0
  9
$UCSYDIR
 10
0.0
 20
1.0
 30
0.0
  9
$PUCSNAME
  2

  9
$PUCSORG
 10
0.0
 20
0.0
 30
0.0
  9
$PUCSXDIR
 10
1.0
 20
0.0
 30
0.0
  9
$PUCSYDIR
 10
0.0
 20
1.0
 30
0.0
  9
$USERI1
 70
     0
  9
$USERI2
 70
     0
  9
$USERI3
 70
     0
  9
$USERI4
 70
     0
  9
$USERI5
 70
     0
  9
$USERR1
 40
0.0
  9
$USERR2
 40
0.0
  9
$USERR3
 40
0.0
  9
$USERR4
 40
0.0
  9
$USERR5
 40
0.0
  9
$WORLDVIEW
 70
     1
  9
$SHADEDGE
 70
     3
  9
$SHADEDIF
 70
    70
  9
$TILEMODE
 70
     1
  9
$MAXACTVP
 70
    64
  9
$PINSBASE
 10
0.0
 20
0.0
 30
0.0
  9
$PLIMCHECK
 70
     0
  9
$PEXTMIN
 10
1.000000000000000E+20
 20
1.000000000000000E+20
 30
1.000000000000000E+20
  9
$PEXTMAX
 10
-1.000000000000000E+20
 20
-1.000000000000000E+20
 30
-1.000000000000000E+20
  9
$PLIMMIN
 10
0.0
 20
0.0
  9
$PLIMMAX
 10
12.0
 20
9.0
  9
$UNITMODE
 70
     0
  9
$VISRETAIN
 70
     1
  9
$PLINEGEN
 70
     0
  9
$PSLTSCALE
 70
     1
  9
$TREEDEPTH
 70
  3020
  9
$PICKSTYLE
 70
     1
  9
$CMLSTYLE
  2
STANDARD
  9
$CMLJUST
 70
     0
  9
$CMLSCALE
 40
1.0
  9
$PROXYGRAPHICS
 70
     1
  9
$MEASUREMENT
 70
     0
  0
ENDSEC
  0
SECTION
  2
CLASSES
  0
CLASS
  1
ACDBDICTIONARYWDFLT
  2
AcDbDictionaryWithDefault
  3
ObjectDBX Classes
 90
        0
280
     0
281
     0
  0
CLASS
  1
VISUALSTYLE
  2
AcDbVisualStyle
  3
ObjectDBX Classes
 90
     4095
280
     0
281
     0
  0
CLASS
  1
XRECORD
  2
AcDbXrecord
  3
AutoCAD 2000
 90
        0
280
     0
281
     0
  0
CLASS
  1
LWPOLYLINE
  2
AcDbPolyline
  3
AutoCAD 2000
 90
        0
280
     0
281
     1
  0
CLASS
  1
HATCH
  2
AcDbHatch
  3
AutoCAD 2000
 90
        0
280
     0
281
     1
  0
CLASS
  1
ACDBPLACEHOLDER
  2
AcDbPlaceHolder
  3
ObjectDBX Classes
 90
        0
280
     0
281
     0
  0
CLASS
  1
LAYOUT
  2
AcDbLayout
  3
ObjectDBX Classes
 90
        0
280
     0
281
     0
  0
ENDSEC
  0
SECTION
  2
TABLES
  0
TABLE
  2
VPORT
  5
8
330
0
100
AcDbSymbolTable
 70
     1
  0
VPORT
  5
29
330
8
100
AcDbSymbolTableRecord
100
AcDbViewportTableRecord
  2
*ACTIVE
 70
     0
 10
0.0
 20
0.0
 11
1.0
 21
1.0
 12
0.0
 22
0.0
 13
0.0
 23
0.0
 14
0.5
 24
0.5
 15
0.5
 25
0.5
 16
0.0
 26
0.0
 36
1.0
 17
1.927707895209519
 27
-0.0120052174608585
 37
0.0
 40
19.19546061667092
 41
1.385166411509485
 42
50.0
 43
0.0
 44
0.0
 50
0.0
 51
0.0
 71
     0
 72
   100
 73
     1
 74
     3
 75
     0
 76
     0
 77
     0
 78
     0
  0
ENDTAB
  0
TABLE
  2
LTYPE
  5
5
330
0
100
AcDbSymbolTable
 70
    75
  0
LTYPE
  5
14
330
5
100
AcDbSymbolTableRecord
100
AcDbLinetypeTableRecord
  2
BYBLOCK
 70
     0
  3

 72
    65
 73
     0
 40
0.0
  0
LTYPE
  5
15
330
5
100
AcDbSymbolTableRecord
100
AcDbLinetypeTableRecord
  2
BYLAYER
 70
     0
  3

 72
    65
 73
     0
 40
0.0
  0
LTYPE
  5
16
330
5
100
AcDbSymbolTableRecord
100
AcDbLinetypeTableRecord
  2
CONTINUOUS
 70
     0
  3
Solid line
 72
    65
 73
     0
 40
0.0
  0
LTYPE
  5
40
330
5
100
AcDbSymbolTableRecord
100
AcDbLinetypeTableRecord
  2
BORDER
 70
     0
  3
__ __ . __ __ . __ 
 72
    65
 73
     6
 40
0.875
 49
0.25
 74
     0
 49
-0.125
 74
     0
 49
0.25
 74
     0
 49
-0.125
 74
     0
 49
0.0
 74
     0
 49
-0.125
 74
     0
  0
LTYPE
  5
41
330
5
100
AcDbSymbolTableRecord
100
AcDbLinetypeTableRecord
  2
CENTER
 70
     0
  3
___ _ ___ _ ___ _ _
 72
    65
 73
     4
 40
1.125
 49
0.75
 74
     0
 49
-0.125
 74
     0
 49
0.125
 74
     0
 49
-0.125
 74
     0
  0
LTYPE
  5
42
330
5
100
AcDbSymbolTableRecord
100
AcDbLinetypeTableRecord
  2
DASHDOT
 70
     0
  3
_._._._._._._._._._
 72
    65
 73
     4
 40
0.5
 49
0.25
 74
     0
 49
-0.125
 74
     0
 49
0.0
 74
     0
 49
-0.125
 74
     0
  0
LTYPE
  5
43
330
5
100
AcDbSymbolTableRecord
100
AcDbLinetypeTableRecord
  2
DASHED
 70
     0
  3
_ _ _ _ _ _ _ _ _ _
 72
    65
 73
     2
 40
0.375
 49
0.25
 74
     0
 49
-0.125
 74
     0
  0
LTYPE
  5
44
330
5
100
AcDbSymbolTableRecord
100
AcDbLinetypeTableRecord
  2
DIVIDE
 70
     0
  3
__..__..__..__..__.
 72
    65
 73
     6
 40
0.625
 49
0.25
 74
     0
 49
-0.125
 74
     0
 49
0.0
 74
     0
 49
-0.125
 74
     0
 49
0.0
 74
     0
 49
-0.125
 74
     0
  0
LTYPE
  5
45
330
5
100
AcDbSymbolTableRecord
100
AcDbLinetypeTableRecord
  2
DOT
 70
     0
  3
...................
 72
    65
 73
     2
 40
0.125
 49
0.0
 74
     0
 49
-0.125
 74
     0
  0
LTYPE
  5
46
330
5
100
AcDbSymbolTableRecord
100
AcDbLinetypeTableRecord
  2
HIDDEN
 70
     0
  3
__ __ __ __ __ __ _
 72
    65
 73
     2
 40
0.1875
 49
0.125
 74
     0
 49
-0.0625
 74
     0
  0
LTYPE
  5
47
330
5
100
AcDbSymbolTableRecord
100
AcDbLinetypeTableRecord
  2
PHANTOM
 70
     0
  3
___ _ _ ___ _ _ ___
 72
    65
 73
     6
 40
1.25
 49
0.625
 74
     0
 49
-0.125
 74
     0
 49
0.125
 74
     0
 49
-0.125
 74
     0
 49
0.125
 74
     0
 49
-0.125
 74
     0
  0
LTYPE
  5
48
330
5
100
AcDbSymbolTableRecord
100
AcDbLinetypeTableRecord
  2
CUTTING
 70
     0
  3
________ _ _ ______
 72
    65
 73
     6
 40
1.4675
 49
1.0
 74
     0
 49
-0.0725
 74
     0
 49
0.125
 74
     0
 49
-0.0725
 74
     0
 49
0.125
 74
     0
 49
-0.0725
 74
     0
  0
LTYPE
  5
49
330
5
100
AcDbSymbolTableRecord
100
AcDbLinetypeTableRecord
  2
STITCH
 70
     0
  3
_ _ _ _ _ _ _ _ _ _
 72
    65
 73
     2
 40
0.145
 49
0.0725
 74
     0
 49
-0.0725
 74
     0
  0
LTYPE
  5
4A
330
5
100
AcDbSymbolTableRecord
100
AcDbLinetypeTableRecord
  2
DOTTED
 70
     0
  3
Dotted
 72
    65
 73
     2
 40
0.125
 49
0.0
 74
     0
 49
-0.125
 74
     0
  0
LTYPE
  5
4B
330
5
100
AcDbSymbolTableRecord
100
AcDbLinetypeTableRecord
  2
CENTER0
 70
     0
  3
Center
 72
    65
 73
     4
 40
0.7699999958000001
 49
0.5
 74
     0
 49
-0.0724999979
 74
     0
 49
0.125
 74
     0
 49
-0.0724999979
 74
     0
  0
LTYPE
  5
4C
330
5
100
AcDbSymbolTableRecord
100
AcDbLinetypeTableRecord
  2
DASHED1
 70
     0
  3
Dashed
 72
    65
 73
     2
 40
0.375
 49
0.25
 74
     0
 49
-0.125
 74
     0
  0
LTYPE
  5
4D
330
5
100
AcDbSymbolTableRecord
100
AcDbLinetypeTableRecord
  2
HIDDEN2
 70
     0
  3
Hidden
 72
    65
 73
     2
 40
0.1974999979
 49
0.125
 74
     0
 49
-0.0724999979
 74
     0
  0
LTYPE
  5
4E
330
5
100
AcDbSymbolTableRecord
100
AcDbLinetypeTableRecord
  2
PHANTOM3
 70
     0
  3
Phantom
 72
    65
 73
     6
 40
0.9674999937000002
 49
0.5
 74
     0
 49
-0.0724999979
 74
     0
 49
0.125
 74
     0
 49
-0.0724999979
 74
     0
 49
0.125
 74
     0
 49
-0.0724999979
 74
     0
  0
LTYPE
  5
4F
330
5
100
AcDbSymbolTableRecord
100
AcDbLinetypeTableRecord
  2
DASHDOT4
 70
     0
  3
Dashdot
 72
    65
 73
     4
 40
0.6762499958000001
 49
0.5
 74
     0
 49
-0.0724999979
 74
     0
 49
0.03125
 74
     0
 49
-0.0724999979
 74
     0
  0
LTYPE
  5
50
330
5
100
AcDbSymbolTableRecord
100
AcDbLinetypeTableRecord
  2
BORDER5
 70
     0
  3
Border
 72
    65
 73
     6
 40
1.2487499937
 49
0.5
 74
     0
 49
-0.0724999979
 74
     0
 49
0.5
 74
     0
 49
-0.0724999979
 74
     0
 49
0.03125
 74
     0
 49
-0.0724999979
 74
     0
  0
LTYPE
  5
51
330
5
100
AcDbSymbolTableRecord
100
AcDbLinetypeTableRecord
  2
DIVIDE6
 70
     0
  3
Divide
 72
    65
 73
     6
 40
0.7799999937000002
 49
0.5
 74
     0
 49
-0.0724999979
 74
     0
 49
0.03125
 74
     0
 49
-0.0724999979
 74
     0
 49
0.03125
 74
     0
 49
-0.0724999979
 74
     0
  0
LTYPE
  5
52
330
5
100
AcDbSymbolTableRecord
100
AcDbLinetypeTableRecord
  2
CUTTING7
 70
     0
  3
Cutting
 72
    65
 73
     6
 40
1.4674999937
 49
1.0
 74
     0
 49
-0.0724999979
 74
     0
 49
0.125
 74
     0
 49
-0.0724999979
 74
     0
 49
0.125
 74
     0
 49
-0.0724999979
 74
     0
  0
LTYPE
  5
53
330
5
100
AcDbSymbolTableRecord
100
AcDbLinetypeTableRecord
  2
STITCH8
 70
     0
  3
Stitch
 72
    65
 73
     2
 40
0.1449999958
 49
0.0724999979
 74
     0
 49
-0.0724999979
 74
     0
  0
LTYPE
  5
54
330
5
100
AcDbSymbolTableRecord
100
AcDbLinetypeTableRecord
  2
CENTER18
 70
     0
  3
Center
 72
    65
 73
     4
 40
0.7699999958000001
 49
0.5
 74
     0
 49
-0.0724999979
 74
     0
 49
0.125
 74
     0
 49
-0.0724999979
 74
     0
  0
LTYPE
  5
55
330
5
100
AcDbSymbolTableRecord
100
AcDbLinetypeTableRecord
  2
DASHED19
 70
     0
  3
Dashed
 72
    65
 73
     2
 40
0.375
 49
0.25
 74
     0
 49
-0.125
 74
     0
  0
LTYPE
  5
56
330
5
100
AcDbSymbolTableRecord
100
AcDbLinetypeTableRecord
  2
HIDDEN20
 70
     0
  3
Hidden
 72
    65
 73
     2
 40
0.1974999979
 49
0.125
 74
     0
 49
-0.0724999979
 74
     0
  0
LTYPE
  5
57
330
5
100
AcDbSymbolTableRecord
100
AcDbLinetypeTableRecord
  2
PHANTOM21
 70
     0
  3
Phantom
 72
    65
 73
     6
 40
0.9674999937000002
 49
0.5
 74
     0
 49
-0.0724999979
 74
     0
 49
0.125
 74
     0
 49
-0.0724999979
 74
     0
 49
0.125
 74
     0
 49
-0.0724999979
 74
     0
  0
LTYPE
  5
58
330
5
100
AcDbSymbolTableRecord
100
AcDbLinetypeTableRecord
  2
DASHDOT22
 70
     0
  3
Dashdot
 72
    65
 73
     4
 40
0.6762499958000001
 49
0.5
 74
     0
 49
-0.0724999979
 74
     0
 49
0.03125
 74
     0
 49
-0.0724999979
 74
     0
  0
LTYPE
  5
59
330
5
100
AcDbSymbolTableRecord
100
AcDbLinetypeTableRecord
  2
BORDER23
 70
     0
  3
Border
 72
    65
 73
     6
 40
1.2487499937
 49
0.5
 74
     0
 49
-0.0724999979
 74
     0
 49
0.5
 74
     0
 49
-0.0724999979
 74
     0
 49
0.03125
 74
     0
 49
-0.0724999979
 74
     0
  0
LTYPE
  5
5A
330
5
100
AcDbSymbolTableRecord
100
AcDbLinetypeTableRecord
  2
DIVIDE24
 70
     0
  3
Divide
 72
    65
 73
     6
 40
0.7799999937000002
 49
0.5
 74
     0
 49
-0.0724999979
 74
     0
 49
0.03125
 74
     0
 49
-0.0724999979
 74
     0
 49
0.03125
 74
     0
 49
-0.0724999979
 74
     0
  0
LTYPE
  5
5B
330
5
100
AcDbSymbolTableRecord
100
AcDbLinetypeTableRecord
  2
CUTTING25
 70
     0
  3
Cutting
 72
    65
 73
     6
 40
1.4674999937
 49
1.0
 74
     0
 49
-0.0724999979
 74
     0
 49
0.125
 74
     0
 49
-0.0724999979
 74
     0
 49
0.125
 74
     0
 49
-0.0724999979
 74
     0
  0
LTYPE
  5
5C
330
5
100
AcDbSymbolTableRecord
100
AcDbLinetypeTableRecord
  2
STITCH26
 70
     0
  3
Stitch
 72
    65
 73
     2
 40
0.1449999958
 49
0.0724999979
 74
     0
 49
-0.0724999979
 74
     0
  0
LTYPE
  5
5D
330
5
100
AcDbSymbolTableRecord
100
AcDbLinetypeTableRecord
  2
CENTER98
 70
     0
  3
Center
 72
    65
 73
     4
 40
0.7699999958000001
 49
0.5
 74
     0
 49
-0.0724999979
 74
     0
 49
0.125
 74
     0
 49
-0.0724999979
 74
     0
  0
LTYPE
  5
5E
330
5
100
AcDbSymbolTableRecord
100
AcDbLinetypeTableRecord
  2
DASHED99
 70
     0
  3
Dashed
 72
    65
 73
     2
 40
0.375
 49
0.25
 74
     0
 49
-0.125
 74
     0
  0
LTYPE
  5
5F
330
5
100
AcDbSymbolTableRecord
100
AcDbLinetypeTableRecord
  2
HIDDEN100
 70
     0
  3
Hidden
 72
    65
 73
     2
 40
0.1974999979
 49
0.125
 74
     0
 49
-0.0724999979
 74
     0
  0
LTYPE
  5
60
330
5
100
AcDbSymbolTableRecord
100
AcDbLinetypeTableRecord
  2
PHANTOM101
 70
     0
  3
Phantom
 72
    65
 73
     6
 40
0.9674999937000002
 49
0.5
 74
     0
 49
-0.0724999979
 74
     0
 49
0.125
 74
     0
 49
-0.0724999979
 74
     0
 49
0.125
 74
     0
 49
-0.0724999979
 74
     0
  0
LTYPE
  5
61
330
5
100
AcDbSymbolTableRecord
100
AcDbLinetypeTableRecord
  2
DASHDOT102
 70
     0
  3
Dashdot
 72
    65
 73
     4
 40
0.6762499958000001
 49
0.5
 74
     0
 49
-0.0724999979
 74
     0
 49
0.03125
 74
     0
 49
-0.0724999979
 74
     0
  0
LTYPE
  5
62
330
5
100
AcDbSymbolTableRecord
100
AcDbLinetypeTableRecord
  2
BORDER103
 70
     0
  3
Border
 72
    65
 73
     6
 40
1.2487499937
 49
0.5
 74
     0
 49
-0.0724999979
 74
     0
 49
0.5
 74
     0
 49
-0.0724999979
 74
     0
 49
0.03125
 74
     0
 49
-0.0724999979
 74
     0
  0
LTYPE
  5
63
330
5
100
AcDbSymbolTableRecord
100
AcDbLinetypeTableRecord
  2
DIVIDE104
 70
     0
  3
Divide
 72
    65
 73
     6
 40
0.7799999937000002
 49
0.5
 74
     0
 49
-0.0724999979
 74
     0
 49
0.03125
 74
     0
 49
-0.0724999979
 74
     0
 49
0.03125
 74
     0
 49
-0.0724999979
 74
     0
  0
LTYPE
  5
64
330
5
100
AcDbSymbolTableRecord
100
AcDbLinetypeTableRecord
  2
CUTTING105
 70
     0
  3
Cutting
 72
    65
 73
     6
 40
1.4674999937
 49
1.0
 74
     0
 49
-0.0724999979
 74
     0
 49
0.125
 74
     0
 49
-0.0724999979
 74
     0
 49
0.125
 74
     0
 49
-0.0724999979
 74
     0
  0
LTYPE
  5
65
330
5
100
AcDbSymbolTableRecord
100
AcDbLinetypeTableRecord
  2
STITCH106
 70
     0
  3
Stitch
 72
    65
 73
     2
 40
0.1449999958
 49
0.0724999979
 74
     0
 49
-0.0724999979
 74
     0
  0
LTYPE
  5
66
330
5
100
AcDbSymbolTableRecord
100
AcDbLinetypeTableRecord
  2
DOTTED107
 70
     0
  3
Dotted
 72
    65
 73
     2
 40
0.125
 49
0.0
 74
     0
 49
-0.125
 74
     0
  0
LTYPE
  5
67
330
5
100
AcDbSymbolTableRecord
100
AcDbLinetypeTableRecord
  2
CENTER9
 70
     0
  3
Center
 72
    65
 73
     4
 40
0.7699999958000001
 49
0.5
 74
     0
 49
-0.0724999979
 74
     0
 49
0.125
 74
     0
 49
-0.0724999979
 74
     0
  0
LTYPE
  5
68
330
5
100
AcDbSymbolTableRecord
100
AcDbLinetypeTableRecord
  2
DASHED10
 70
     0
  3
Dashed
 72
    65
 73
     2
 40
0.375
 49
0.25
 74
     0
 49
-0.125
 74
     0
  0
LTYPE
  5
69
330
5
100
AcDbSymbolTableRecord
100
AcDbLinetypeTableRecord
  2
HIDDEN11
 70
     0
  3
Hidden
 72
    65
 73
     2
 40
0.1974999979
 49
0.125
 74
     0
 49
-0.0724999979
 74
     0
  0
LTYPE
  5
6A
330
5
100
AcDbSymbolTableRecord
100
AcDbLinetypeTableRecord
  2
PHANTOM12
 70
     0
  3
Phantom
 72
    65
 73
     6
 40
0.9674999937000002
 49
0.5
 74
     0
 49
-0.0724999979
 74
     0
 49
0.125
 74
     0
 49
-0.0724999979
 74
     0
 49
0.125
 74
     0
 49
-0.0724999979
 74
     0
  0
LTYPE
  5
6B
330
5
100
AcDbSymbolTableRecord
100
AcDbLinetypeTableRecord
  2
DASHDOT13
 70
     0
  3
Dashdot
 72
    65
 73
     4
 40
0.6762499958000001
 49
0.5
 74
     0
 49
-0.0724999979
 74
     0
 49
0.03125
 74
     0
 49
-0.0724999979
 74
     0
  0
LTYPE
  5
6C
330
5
100
AcDbSymbolTableRecord
100
AcDbLinetypeTableRecord
  2
BORDER14
 70
     0
  3
Border
 72
    65
 73
     6
 40
1.2487499937
 49
0.5
 74
     0
 49
-0.0724999979
 74
     0
 49
0.5
 74
     0
 49
-0.0724999979
 74
     0
 49
0.03125
 74
     0
 49
-0.0724999979
 74
     0
  0
LTYPE
  5
6D
330
5
100
AcDbSymbolTableRecord
100
AcDbLinetypeTableRecord
  2
DIVIDE15
 70
     0
  3
Divide
 72
    65
 73
     6
 40
0.7799999937000002
 49
0.5
 74
     0
 49
-0.0724999979
 74
     0
 49
0.03125
 74
     0
 49
-0.0724999979
 74
     0
 49
0.03125
 74
     0
 49
-0.0724999979
 74
     0
  0
LTYPE
  5
6E
330
5
100
AcDbSymbolTableRecord
100
AcDbLinetypeTableRecord
  2
CUTTING16
 70
     0
  3
Cutting
 72
    65
 73
     6
 40
1.4674999937
 49
1.0
 74
     0
 49
-0.0724999979
 74
     0
 49
0.125
 74
     0
 49
-0.0724999979
 74
     0
 49
0.125
 74
     0
 49
-0.0724999979
 74
     0
  0
LTYPE
  5
6F
330
5
100
AcDbSymbolTableRecord
100
AcDbLinetypeTableRecord
  2
STITCH17
 70
     0
  3
Stitch
 72
    65
 73
     2
 40
0.1449999958
 49
0.0724999979
 74
     0
 49
-0.0724999979
 74
     0
  0
LTYPE
  5
70
330
5
100
AcDbSymbolTableRecord
100
AcDbLinetypeTableRecord
  2
DOTTED27
 70
     0
  3
Dotted
 72
    65
 73
     2
 40
0.125
 49
0.0
 74
     0
 49
-0.125
 74
     0
  0
LTYPE
  5
71
330
5
100
AcDbSymbolTableRecord
100
AcDbLinetypeTableRecord
  2
CENTER28
 70
     0
  3
Center
 72
    65
 73
     4
 40
0.7699999958000001
 49
0.5
 74
     0
 49
-0.0724999979
 74
     0
 49
0.125
 74
     0
 49
-0.0724999979
 74
     0
  0
LTYPE
  5
72
330
5
100
AcDbSymbolTableRecord
100
AcDbLinetypeTableRecord
  2
DASHED29
 70
     0
  3
Dashed
 72
    65
 73
     2
 40
0.375
 49
0.25
 74
     0
 49
-0.125
 74
     0
  0
LTYPE
  5
73
330
5
100
AcDbSymbolTableRecord
100
AcDbLinetypeTableRecord
  2
HIDDEN30
 70
     0
  3
Hidden
 72
    65
 73
     2
 40
0.1974999979
 49
0.125
 74
     0
 49
-0.0724999979
 74
     0
  0
LTYPE
  5
74
330
5
100
AcDbSymbolTableRecord
100
AcDbLinetypeTableRecord
  2
PHANTOM31
 70
     0
  3
Phantom
 72
    65
 73
     6
 40
0.9674999937000002
 49
0.5
 74
     0
 49
-0.0724999979
 74
     0
 49
0.125
 74
     0
 49
-0.0724999979
 74
     0
 49
0.125
 74
     0
 49
-0.0724999979
 74
     0
  0
LTYPE
  5
75
330
5
100
AcDbSymbolTableRecord
100
AcDbLinetypeTableRecord
  2
DASHDOT32
 70
     0
  3
Dashdot
 72
    65
 73
     4
 40
0.6762499958000001
 49
0.5
 74
     0
 49
-0.0724999979
 74
     0
 49
0.03125
 74
     0
 49
-0.0724999979
 74
     0
  0
LTYPE
  5
76
330
5
100
AcDbSymbolTableRecord
100
AcDbLinetypeTableRecord
  2
BORDER33
 70
     0
  3
Border
 72
    65
 73
     6
 40
1.2487499937
 49
0.5
 74
     0
 49
-0.0724999979
 74
     0
 49
0.5
 74
     0
 49
-0.0724999979
 74
     0
 49
0.03125
 74
     0
 49
-0.0724999979
 74
     0
  0
LTYPE
  5
77
330
5
100
AcDbSymbolTableRecord
100
AcDbLinetypeTableRecord
  2
DIVIDE34
 70
     0
  3
Divide
 72
    65
 73
     6
 40
0.7799999937000002
 49
0.5
 74
     0
 49
-0.0724999979
 74
     0
 49
0.03125
 74
     0
 49
-0.0724999979
 74
     0
 49
0.03125
 74
     0
 49
-0.0724999979
 74
     0
  0
LTYPE
  5
78
330
5
100
AcDbSymbolTableRecord
100
AcDbLinetypeTableRecord
  2
CUTTING35
 70
     0
  3
Cutting
 72
    65
 73
     6
 40
1.4674999937
 49
1.0
 74
     0
 49
-0.0724999979
 74
     0
 49
0.125
 74
     0
 49
-0.0724999979
 74
     0
 49
0.125
 74
     0
 49
-0.0724999979
 74
     0
  0
LTYPE
  5
79
330
5
100
AcDbSymbolTableRecord
100
AcDbLinetypeTableRecord
  2
STITCH36
 70
     0
  3
Stitch
 72
    65
 73
     2
 40
0.1449999958
 49
0.0724999979
 74
     0
 49
-0.0724999979
 74
     0
  0
LTYPE
  5
7A
330
5
100
AcDbSymbolTableRecord
100
AcDbLinetypeTableRecord
  2
DOTTED37
 70
     0
  3
Dotted
 72
    65
 73
     2
 40
0.125
 49
0.0
 74
     0
 49
-0.125
 74
     0
  0
LTYPE
  5
7B
330
5
100
AcDbSymbolTableRecord
100
AcDbLinetypeTableRecord
  2
CENTER38
 70
     0
  3
Center
 72
    65
 73
     4
 40
0.7699999958000001
 49
0.5
 74
     0
 49
-0.0724999979
 74
     0
 49
0.125
 74
     0
 49
-0.0724999979
 74
     0
  0
LTYPE
  5
7C
330
5
100
AcDbSymbolTableRecord
100
AcDbLinetypeTableRecord
  2
DASHED39
 70
     0
  3
Dashed
 72
    65
 73
     2
 40
0.375
 49
0.25
 74
     0
 49
-0.125
 74
     0
  0
LTYPE
  5
7D
330
5
100
AcDbSymbolTableRecord
100
AcDbLinetypeTableRecord
  2
HIDDEN40
 70
     0
  3
Hidden
 72
    65
 73
     2
 40
0.1974999979
 49
0.125
 74
     0
 49
-0.0724999979
 74
     0
  0
LTYPE
  5
7E
330
5
100
AcDbSymbolTableRecord
100
AcDbLinetypeTableRecord
  2
PHANTOM41
 70
     0
  3
Phantom
 72
    65
 73
     6
 40
0.9674999937000002
 49
0.5
 74
     0
 49
-0.0724999979
 74
     0
 49
0.125
 74
     0
 49
-0.0724999979
 74
     0
 49
0.125
 74
     0
 49
-0.0724999979
 74
     0
  0
LTYPE
  5
7F
330
5
100
AcDbSymbolTableRecord
100
AcDbLinetypeTableRecord
  2
DASHDOT42
 70
     0
  3
Dashdot
 72
    65
 73
     4
 40
0.6762499958000001
 49
0.5
 74
     0
 49
-0.0724999979
 74
     0
 49
0.03125
 74
     0
 49
-0.0724999979
 74
     0
  0
LTYPE
  5
80
330
5
100
AcDbSymbolTableRecord
100
AcDbLinetypeTableRecord
  2
BORDER43
 70
     0
  3
Border
 72
    65
 73
     6
 40
1.2487499937
 49
0.5
 74
     0
 49
-0.0724999979
 74
     0
 49
0.5
 74
     0
 49
-0.0724999979
 74
     0
 49
0.03125
 74
     0
 49
-0.0724999979
 74
     0
  0
LTYPE
  5
81
330
5
100
AcDbSymbolTableRecord
100
AcDbLinetypeTableRecord
  2
DIVIDE44
 70
     0
  3
Divide
 72
    65
 73
     6
 40
0.7799999937000002
 49
0.5
 74
     0
 49
-0.0724999979
 74
     0
 49
0.03125
 74
     0
 49
-0.0724999979
 74
     0
 49
0.03125
 74
     0
 49
-0.0724999979
 74
     0
  0
LTYPE
  5
82
330
5
100
AcDbSymbolTableRecord
100
AcDbLinetypeTableRecord
  2
CUTTING45
 70
     0
  3
Cutting
 72
    65
 73
     6
 40
1.4674999937
 49
1.0
 74
     0
 49
-0.0724999979
 74
     0
 49
0.125
 74
     0
 49
-0.0724999979
 74
     0
 49
0.125
 74
     0
 49
-0.0724999979
 74
     0
  0
LTYPE
  5
83
330
5
100
AcDbSymbolTableRecord
100
AcDbLinetypeTableRecord
  2
STITCH46
 70
     0
  3
Stitch
 72
    65
 73
     2
 40
0.1449999958
 49
0.0724999979
 74
     0
 49
-0.0724999979
 74
     0
  0
LTYPE
  5
84
330
5
100
AcDbSymbolTableRecord
100
AcDbLinetypeTableRecord
  2
DOTTED47
 70
     0
  3
Dotted
 72
    65
 73
     2
 40
0.125
 49
0.0
 74
     0
 49
-0.125
 74
     0
  0
LTYPE
  5
85
330
5
100
AcDbSymbolTableRecord
100
AcDbLinetypeTableRecord
  2
CENTER48
 70
     0
  3
Center
 72
    65
 73
     4
 40
0.7699999958000001
 49
0.5
 74
     0
 49
-0.0724999979
 74
     0
 49
0.125
 74
     0
 49
-0.0724999979
 74
     0
  0
LTYPE
  5
86
330
5
100
AcDbSymbolTableRecord
100
AcDbLinetypeTableRecord
  2
DASHED49
 70
     0
  3
Dashed
 72
    65
 73
     2
 40
0.375
 49
0.25
 74
     0
 49
-0.125
 74
     0
  0
LTYPE
  5
87
330
5
100
AcDbSymbolTableRecord
100
AcDbLinetypeTableRecord
  2
HIDDEN50
 70
     0
  3
Hidden
 72
    65
 73
     2
 40
0.1974999979
 49
0.125
 74
     0
 49
-0.0724999979
 74
     0
  0
LTYPE
  5
88
330
5
100
AcDbSymbolTableRecord
100
AcDbLinetypeTableRecord
  2
PHANTOM51
 70
     0
  3
Phantom
 72
    65
 73
     6
 40
0.9674999937000002
 49
0.5
 74
     0
 49
-0.0724999979
 74
     0
 49
0.125
 74
     0
 49
-0.0724999979
 74
     0
 49
0.125
 74
     0
 49
-0.0724999979
 74
     0
  0
LTYPE
  5
89
330
5
100
AcDbSymbolTableRecord
100
AcDbLinetypeTableRecord
  2
DASHDOT52
 70
     0
  3
Dashdot
 72
    65
 73
     4
 40
0.6762499958000001
 49
0.5
 74
     0
 49
-0.0724999979
 74
     0
 49
0.03125
 74
     0
 49
-0.0724999979
 74
     0
  0
ENDTAB
  0
TABLE
  2
LAYER
  5
2
330
0
100
AcDbSymbolTable
 70
     5
  0
LAYER
  5
10
330
2
100
AcDbSymbolTableRecord
100
AcDbLayerTableRecord
  2
0
 70
     0
 62
     7
  6
CONTINUOUS
  0
LAYER
  5
3C
330
2
100
AcDbSymbolTableRecord
100
AcDbLayerTableRecord
  2
DXF_US-2215_V5
 70
     0
 62
     7
  6
CONTINUOUS
  0
LAYER
  5
3D
330
2
100
AcDbSymbolTableRecord
100
AcDbLayerTableRecord
  2
DXF_US-2215_V5_MODEL
 70
     0
 62
     7
  6
CONTINUOUS
  0
LAYER
  5
3E
330
2
100
AcDbSymbolTableRecord
100
AcDbLayerTableRecord
  2
DXF_US-2215_V5_MODEL_DXF_U
 70
     0
 62
     7
  6
CONTINUOUS
  0
LAYER
  5
A6
330
2
100
AcDbSymbolTableRecord
100
AcDbLayerTableRecord
  2
DEFPOINTS
 70
     0
 62
     7
  6
CONTINUOUS
  0
ENDTAB
  0
TABLE
  2
STYLE
  5
3
330
0
100
AcDbSymbolTable
 70
     7
  0
STYLE
  5
11
330
3
100
AcDbSymbolTableRecord
100
AcDbTextStyleTableRecord
  2
STANDARD
 70
     0
 40
0.0
 41
1.0
 50
0.0
 71
     0
 42
0.2
  3
txt
  4

  0
STYLE
  5
98
330
3
100
AcDbSymbolTableRecord
100
AcDbTextStyleTableRecord
  2
TEXT33
 70
     0
 40
0.2
 41
1.0
 50
0.0
 71
     0
 42
0.2
  3

  4

1001
ACAD
1000
Plotter
1071
        0
  0
STYLE
  5
BC
330
3
100
AcDbSymbolTableRecord
100
AcDbTextStyleTableRecord
  2
TEXT54
 70
     0
 40
0.2
 41
1.0
 50
0.0
 71
     0
 42
0.2
  3

  4

1001
ACAD
1000
Plotter
1071
        0
  0
STYLE
  5
D6
330
3
100
AcDbSymbolTableRecord
100
AcDbTextStyleTableRecord
  2
TEXT66
 70
     0
 40
0.2
 41
1.0
 50
0.0
 71
     0
 42
0.2
  3

  4

1001
ACAD
1000
Plotter
1071
        0
  0
STYLE
  5
EF
330
3
100
AcDbSymbolTableRecord
100
AcDbTextStyleTableRecord
  2
TEXT90
 70
     0
 40
0.2
 41
1.0
 50
0.0
 71
     0
 42
0.2
  3

  4

1001
ACAD
1000
Plotter
1071
        0
  0
STYLE
  5
103
330
3
100
AcDbSymbolTableRecord
100
AcDbTextStyleTableRecord
  2
TEXT96
 70
     0
 40
0.2
 41
1.0
 50
0.0
 71
     0
 42
0.2
  3

  4

1001
ACAD
1000
Plotter
1071
        0
  0
STYLE
  5
105
330
3
100
AcDbSymbolTableRecord
100
AcDbTextStyleTableRecord
  2
TEXT97
 70
     0
 40
0.2
 41
1.0
 50
0.0
 71
     0
 42
0.2
  3

  4

1001
ACAD
1000
Plotter
1071
        0
  0
ENDTAB
  0
TABLE
  2
VIEW
  5
6
330
0
100
AcDbSymbolTable
 70
     0
  0
ENDTAB
  0
TABLE
  2
UCS
  5
7
330
0
100
AcDbSymbolTable
 70
     0
  0
ENDTAB
  0
TABLE
  2
APPID
  5
9
330
0
100
AcDbSymbolTable
 70
     2
  0
APPID
  5
12
330
9
100
AcDbSymbolTableRecord
100
AcDbRegAppTableRecord
  2
ACAD
 70
     0
  0
APPID
  5
3B
330
9
100
AcDbSymbolTableRecord
100
AcDbRegAppTableRecord
  2
PUNCH__SOFTWARE_VIACAD
 70
     0
  0
ENDTAB
  0
TABLE
  2
DIMSTYLE
  5
A
330
0
100
AcDbSymbolTable
 70
     5
  0
DIMSTYLE
105
27
330
A
100
AcDbSymbolTableRecord
100
AcDbDimStyleTableRecord
  2
STANDARD
 70
     0
  3

  4

  5

  6

  7

 40
1.0
 41
0.18
 42
0.0625
 43
0.38
 44
0.18
 45
0.0
 46
0.0
 47
0.0
 48
0.0
140
0.18
141
0.09
142
0.0
143
25.4
144
1.0
145
0.0
146
1.0
147
0.09
 71
     0
 72
     0
 73
     1
 74
     1
 75
     0
 76
     0
 77
     0
 78
     0
170
     0
171
     2
172
     0
173
     0
174
     0
175
     0
176
     0
177
     0
178
     0
270
     2
271
     4
272
     4
273
     2
274
     2
340
11
275
     0
280
     0
281
     0
282
     0
283
     1
284
     0
285
     0
286
     0
287
     3
288
     0
  0
DIMSTYLE
105
A4
102
{ACAD_REACTORS
330
A5
102
}
330
A
100
AcDbSymbolTableRecord
100
AcDbDimStyleTableRecord
  2
ROTATEDDIM4
 70
     0
  3

  4

  5

  6

  7

 40
1.0
 41
0.25
 42
0.0625
 43
0.38
 44
0.18
 45
0.0
 46
0.0
 47
0.0
 48
0.0
140
0.125
141
0.09
142
0.0
143
25.4
144
1.0
145
0.0
146
1.0
147
0.09
 71
     0
 72
     0
 73
     1
 74
     1
 75
     0
 76
     0
 77
     0
 78
     0
170
     0
171
     2
172
     0
173
     0
174
     0
175
     0
176
     0
177
     0
178
     0
270
     2
271
     4
272
     4
273
     2
274
     2
340
11
275
     0
280
     0
281
     0
282
     0
283
     1
284
     0
285
     0
286
     0
287
     3
288
     0
  0
DIMSTYLE
105
C7
102
{ACAD_REACTORS
330
C8
102
}
330
A
100
AcDbSymbolTableRecord
100
AcDbDimStyleTableRecord
  2
ROTATEDDIM5
 70
     0
  3

  4

  5

  6

  7

 40
1.0
 41
0.25
 42
0.0625
 43
0.38
 44
0.18
 45
0.0
 46
0.0
 47
0.0
 48
0.0
140
0.125
141
0.09
142
0.0
143
25.4
144
1.0
145
0.0
146
1.0
147
0.09
 71
     0
 72
     0
 73
     1
 74
     1
 75
     0
 76
     0
 77
     0
 78
     0
170
     0
171
     2
172
     0
173
     0
174
     0
175
     0
176
     0
177
     0
178
     0
270
     2
271
     4
272
     4
273
     2
274
     2
340
11
275
     0
280
     0
281
     0
282
     0
283
     1
284
     0
285
     0
286
     0
287
     3
288
     0
  0
DIMSTYLE
105
F3
102
{ACAD_REACTORS
330
F4
102
}
330
A
100
AcDbSymbolTableRecord
100
AcDbDimStyleTableRecord
  2
ROTATEDDIM6
 70
     0
  3

  4

  5

  6

  7

 40
1.0
 41
0.25
 42
0.0625
 43
0.38
 44
0.18
 45
0.0
 46
0.0
 47
0.0
 48
0.0
140
0.125
141
0.09
142
0.0
143
25.4
144
1.0
145
0.0
146
1.0
147
0.09
 71
     0
 72
     0
 73
     1
 74
     1
 75
     0
 76
     0
 77
     0
 78
     0
170
     0
171
     2
172
     0
173
     0
174
     0
175
     0
176
     0
177
     0
178
     0
270
     2
271
     4
272
     4
273
     2
274
     2
340
11
275
     0
280
     0
281
     0
282
     0
283
     1
284
     0
285
     0
286
     0
287
     3
288
     0
  0
DIMSTYLE
105
10E
102
{ACAD_REACTORS
330
10F
102
}
330
A
100
AcDbSymbolTableRecord
100
AcDbDimStyleTableRecord
  2
ROTATEDDIM7
 70
     0
  3

  4

  5

  6

  7

 40
1.0
 41
0.25
 42
0.0625
 43
0.38
 44
0.18
 45
0.0
 46
0.0
 47
0.0
 48
0.0
140
0.125
141
0.09
142
0.0
143
25.4
144
1.0
145
0.0
146
1.0
147
0.09
 71
     0
 72
     0
 73
     1
 74
     1
 75
     0
 76
     0
 77
     0
 78
     0
170
     0
171
     2
172
     0
173
     0
174
     0
175
     0
176
     0
177
     0
178
     0
270
     2
271
     4
272
     4
273
     2
274
     2
340
11
275
     0
280
     0
281
     0
282
     0
283
     1
284
     0
285
     0
286
     0
287
     3
288
     0
  0
ENDTAB
  0
TABLE
  2
BLOCK_RECORD
  5
1
330
0
100
AcDbSymbolTable
 70
     5
  0
BLOCK_RECORD
  5
1F
330
1
100
AcDbSymbolTableRecord
100
AcDbBlockTableRecord
  2
*MODEL_SPACE
  0
BLOCK_RECORD
  5
1B
330
1
100
AcDbSymbolTableRecord
100
AcDbBlockTableRecord
  2
*PAPER_SPACE
  0
BLOCK_RECORD
  5
A7
330
1
100
AcDbSymbolTableRecord
100
AcDbBlockTableRecord
  2
*D1
  0
BLOCK_RECORD
  5
C9
330
1
100
AcDbSymbolTableRecord
100
AcDbBlockTableRecord
  2
*D2
  0
BLOCK_RECORD
  5
F5
330
1
100
AcDbSymbolTableRecord
100
AcDbBlockTableRecord
  2
*D3
  0
BLOCK_RECORD
  5
110
330
1
100
AcDbSymbolTableRecord
100
AcDbBlockTableRecord
  2
*D4
  0
ENDTAB
  0
ENDSEC
  0
SECTION
  2
BLOCKS
  0
BLOCK
  5
20
330
1F
100
AcDbEntity
  8
0
100
AcDbBlockBegin
  2
*MODEL_SPACE
 70
     0
 71
     0
 10
0.0
 20
0.0
 30
0.0
  3
*MODEL_SPACE
  1

  0
ENDBLK
  5
21
330
1F
100
AcDbEntity
  8
0
100
AcDbBlockEnd
  0
BLOCK
  5
1C
330
1B
100
AcDbEntity
 67
     1
  8
0
100
AcDbBlockBegin
  2
*PAPER_SPACE
 70
     0
 71
     0
 10
0.0
 20
0.0
 30
0.0
  3
*PAPER_SPACE
  1

  0
ENDBLK
  5
1D
330
1B
100
AcDbEntity
 67
     1
  8
0
100
AcDbBlockEnd
  0
BLOCK
  5
B2
330
A7
100
AcDbEntity
  8
0
100
AcDbBlockBegin
  2
*D1
 70
     1
 71
     0
 10
0.0
 20
0.0
 30
0.0
  3
*D1
  1

  0
LINE
  5
A8
330
A7
100
AcDbEntity
  8
DXF_US-2215_V5_MODEL_DXF_U
 62
     0
100
AcDbLine
 10
10.1111917119
 20
6.7107
 30
0.0
 11
12.8849417767409
 21
6.710700000000001
 31
0.0
  0
LINE
  5
A9
330
A7
100
AcDbEntity
  8
DXF_US-2215_V5_MODEL_DXF_U
 62
     0
100
AcDbLine
 10
10.1111917767409
 20
-8.601049999999999
 30
0.0
 11
12.8849417767409
 21
-8.601049999999999
 31
0.0
  0
LINE
  5
AA
330
A7
100
AcDbEntity
  8
DXF_US-2215_V5_MODEL_DXF_U
 62
     0
100
AcDbLine
 10
12.7049417767409
 20
6.460700000000001
 30
0.0
 11
12.7049417767409
 21
-0.7926749999999982
 31
0.0
  0
LINE
  5
AB
330
A7
100
AcDbEntity
  8
DXF_US-2215_V5_MODEL_DXF_U
 62
     0
100
AcDbLine
 10
12.7049417767409
 20
-8.351049999999999
 30
0.0
 11
12.7049417767409
 21
-1.097674999999998
 31
0.0
  0
SOLID
  5
AC
330
A7
100
AcDbEntity
  8
DXF_US-2215_V5_MODEL_DXF_U
 62
     0
100
AcDbTrace
 10
12.74660844340757
 20
6.460700000000001
 30
0.0
 11
12.66327511007424
 21
6.460700000000001
 31
0.0
 12
12.7049417767409
 22
6.710700000000001
 32
0.0
 13
12.7049417767409
 23
6.710700000000001
 33
0.0
  0
SOLID
  5
AD
330
A7
100
AcDbEntity
  8
DXF_US-2215_V5_MODEL_DXF_U
 62
     0
100
AcDbTrace
 10
12.66327511007423
 20
-8.351049999999999
 30
0.0
 11
12.74660844340757
 21
-8.351049999999999
 31
0.0
 12
12.7049417767409
 22
-8.601049999999999
 32
0.0
 13
12.7049417767409
 23
-8.601049999999999
 33
0.0
  0
MTEXT
  5
AE
330
A7
100
AcDbEntity
  8
DXF_US-2215_V5_MODEL_DXF_U
 62
     0
100
AcDbMText
 10
12.7049417767409
 20
-0.945174999999999
 30
0.0
 40
0.125
 41
0.0
 71
     5
 72
     1
  1
\A1;15.3117
  0
POINT
  5
AF
330
A7
100
AcDbEntity
  8
DEFPOINTS
 62
     0
100
AcDbPoint
 10
10.0486917119
 20
6.7107
 30
0.0
  0
POINT
  5
B0
330
A7
100
AcDbEntity
  8
DEFPOINTS
 62
     0
100
AcDbPoint
 10
10.0486917767409
 20
-8.601049999999999
 30
0.0
  0
POINT
  5
B1
330
A7
100
AcDbEntity
  8
DEFPOINTS
 62
     0
100
AcDbPoint
 10
12.7049417767409
 20
-8.601049999999999
 30
0.0
  0
ENDBLK
  5
B3
330
A7
100
AcDbEntity
  8
0
100
AcDbBlockEnd
  0
BLOCK
  5
D4
330
C9
100
AcDbEntity
  8
0
100
AcDbBlockBegin
  2
*D2
 70
     1
 71
     0
 10
0.0
 20
0.0
 30
0.0
  3
*D2
  1

  0
LINE
  5
CA
330
C9
100
AcDbEntity
  8
DXF_US-2215_V5_MODEL_DXF_U
 62
     0
100
AcDbLine
 10
-0.9833984375
 20
-0.07421875
 30
0.0
 11
-0.9833984375
 21
-0.3423998274
 31
0.0
  0
LINE
  5
CB
330
C9
100
AcDbEntity
  8
DXF_US-2215_V5_MODEL_DXF_U
 62
     0
100
AcDbLine
 10
-0.8582567486
 20
-0.07421875
 30
0.0
 11
-0.8582567486
 21
-0.3423998274
 31
0.0
  0
LINE
  5
CC
330
C9
100
AcDbEntity
  8
DXF_US-2215_V5_MODEL_DXF_U
 62
     0
100
AcDbLine
 10
-1.2333984375
 20
-0.1623998274
 30
0.0
 11
-1.4833984375
 21
-0.1623998274
 31
0.0
  0
LINE
  5
CD
330
C9
100
AcDbEntity
  8
DXF_US-2215_V5_MODEL_DXF_U
 62
     0
100
AcDbLine
 10
-0.6082567486
 20
-0.1623998274
 30
0.0
 11
-0.3582567486
 21
-0.1623998274
 31
0.0
  0
SOLID
  5
CE
330
C9
100
AcDbEntity
  8
DXF_US-2215_V5_MODEL_DXF_U
 62
     0
100
AcDbTrace
 10
-1.2333984375
 20
-0.2040664940666667
 30
0.0
 11
-1.2333984375
 21
-0.1207331607333333
 31
0.0
 12
-0.9833984375
 22
-0.1623998274
 32
0.0
 13
-0.9833984375
 23
-0.1623998274
 33
0.0
  0
SOLID
  5
CF
330
C9
100
AcDbEntity
  8
DXF_US-2215_V5_MODEL_DXF_U
 62
     0
100
AcDbTrace
 10
-0.6082567486
 20
-0.1207331607333333
 30
0.0
 11
-0.6082567486
 21
-0.2040664940666667
 31
0.0
 12
-0.8582567486
 22
-0.1623998274
 32
0.0
 13
-0.8582567486
 23
-0.1623998274
 33
0.0
  0
MTEXT
  5
D0
330
C9
100
AcDbEntity
  8
DXF_US-2215_V5_MODEL_DXF_U
 62
     0
100
AcDbMText
 10
0.0234099180666667
 20
-0.1623998274
 30
0.0
 40
0.125
 41
0.0
 71
     5
 72
     1
  1
\A1;0.1251
  0
POINT
  5
D1
330
C9
100
AcDbEntity
  8
DEFPOINTS
 62
     0
100
AcDbPoint
 10
-0.9833984375
 20
-0.01171875
 30
0.0
  0
POINT
  5
D2
330
C9
100
AcDbEntity
  8
DEFPOINTS
 62
     0
100
AcDbPoint
 10
-0.8582567486
 20
-0.01171875
 30
0.0
  0
POINT
  5
D3
330
C9
100
AcDbEntity
  8
DEFPOINTS
 62
     0
100
AcDbPoint
 10
-0.8582567486
 20
-0.1623998274
 30
0.0
  0
ENDBLK
  5
D5
330
C9
100
AcDbEntity
  8
0
100
AcDbBlockEnd
  0
BLOCK
  5
100
330
F5
100
AcDbEntity
  8
0
100
AcDbBlockBegin
  2
*D3
 70
     1
 71
     0
 10
0.0
 20
0.0
 30
0.0
  3
*D3
  1

  0
LINE
  5
F6
330
F5
100
AcDbEntity
  8
DXF_US-2215_V5_MODEL_DXF_U
 62
     0
100
AcDbLine
 10
-9.826150000000002
 20
-6.764348735436799
 30
0.0
 11
-9.826150000000002
 21
-9.421544735436798
 31
0.0
  0
LINE
  5
F7
330
F5
100
AcDbEntity
  8
DXF_US-2215_V5_MODEL_DXF_U
 62
     0
100
AcDbLine
 10
11.92358797567033
 20
-6.764348735436799
 30
0.0
 11
11.92358797567033
 21
-9.421544735436798
 31
0.0
  0
LINE
  5
F8
330
F5
100
AcDbEntity
  8
DXF_US-2215_V5_MODEL_DXF_U
 62
     0
100
AcDbLine
 10
-9.576150000000002
 20
-9.241544735436799
 30
0.0
 11
0.5896713687875454
 21
-9.241544735436799
 31
0.0
  0
LINE
  5
F9
330
F5
100
AcDbEntity
  8
DXF_US-2215_V5_MODEL_DXF_U
 62
     0
100
AcDbLine
 10
11.67358797567033
 20
-9.241544735436799
 30
0.0
 11
1.507766606882782
 21
-9.241544735436799
 31
0.0
  0
SOLID
  5
FA
330
F5
100
AcDbEntity
  8
DXF_US-2215_V5_MODEL_DXF_U
 62
     0
100
AcDbTrace
 10
-9.576150000000002
 20
-9.199878068770133
 30
0.0
 11
-9.576150000000002
 21
-9.283211402103465
 31
0.0
 12
-9.826150000000002
 22
-9.241544735436799
 32
0.0
 13
-9.826150000000002
 23
-9.241544735436799
 33
0.0
  0
SOLID
  5
FB
330
F5
100
AcDbEntity
  8
DXF_US-2215_V5_MODEL_DXF_U
 62
     0
100
AcDbTrace
 10
11.67358797567033
 20
-9.283211402103465
 30
0.0
 11
11.67358797567033
 21
-9.199878068770133
 31
0.0
 12
11.92358797567033
 22
-9.241544735436799
 32
0.0
 13
11.92358797567033
 23
-9.241544735436799
 33
0.0
  0
MTEXT
  5
FC
330
F5
100
AcDbEntity
  8
DXF_US-2215_V5_MODEL_DXF_U
 62
     0
100
AcDbMText
 10
1.048718987835164
 20
-9.241544735436799
 30
0.0
 40
0.125
 41
0.0
 71
     5
 72
     1
  1
\A1;21.7497
  0
POINT
  5
FD
330
F5
100
AcDbEntity
  8
DEFPOINTS
 62
     0
100
AcDbPoint
 10
-9.826150000000002
 20
-6.701848735436799
 30
0.0
  0
POINT
  5
FE
330
F5
100
AcDbEntity
  8
DEFPOINTS
 62
     0
100
AcDbPoint
 10
11.92358797567033
 20
-6.701848735436799
 30
0.0
  0
POINT
  5
FF
330
F5
100
AcDbEntity
  8
DEFPOINTS
 62
     0
100
AcDbPoint
 10
11.92358797567033
 20
-9.241544735436799
 30
0.0
  0
ENDBLK
  5
101
330
F5
100
AcDbEntity
  8
0
100
AcDbBlockEnd
  0
BLOCK
  5
11B
330
110
100
AcDbEntity
  8
0
100
AcDbBlockBegin
  2
*D4
 70
     1
 71
     0
 10
0.0
 20
0.0
 30
0.0
  3
*D4
  1

  0
LINE
  5
111
330
110
100
AcDbEntity
  8
DXF_US-2215_V5_MODEL_DXF_U
 62
     0
100
AcDbLine
 10
-8.0138082881
 20
9.39705
 30
0.0
 11
-10.9438082881
 21
9.39705
 31
0.0
  0
LINE
  5
112
330
110
100
AcDbEntity
  8
DXF_US-2215_V5_MODEL_DXF_U
 62
     0
100
AcDbLine
 10
-8.0138082881
 20
-8.60105
 30
0.0
 11
-10.9438082881
 21
-8.60105
 31
0.0
  0
LINE
  5
113
330
110
100
AcDbEntity
  8
DXF_US-2215_V5_MODEL_DXF_U
 62
     0
100
AcDbLine
 10
-10.7638082881
 20
9.14705
 30
0.0
 11
-10.7638082881
 21
0.5505000000000013
 31
0.0
  0
LINE
  5
114
330
110
100
AcDbEntity
  8
DXF_US-2215_V5_MODEL_DXF_U
 62
     0
100
AcDbLine
 10
-10.7638082881
 20
-8.35105
 30
0.0
 11
-10.7638082881
 21
0.2455000000000016
 31
0.0
  0
SOLID
  5
115
330
110
100
AcDbEntity
  8
DXF_US-2215_V5_MODEL_DXF_U
 62
     0
100
AcDbTrace
 10
-10.72214162143333
 20
9.14705
 30
0.0
 11
-10.80547495476666
 21
9.14705
 31
0.0
 12
-10.7638082881
 22
9.39705
 32
0.0
 13
-10.7638082881
 23
9.39705
 33
0.0
  0
SOLID
  5
116
330
110
100
AcDbEntity
  8
DXF_US-2215_V5_MODEL_DXF_U
 62
     0
100
AcDbTrace
 10
-10.80547495476667
 20
-8.35105
 30
0.0
 11
-10.72214162143333
 21
-8.35105
 31
0.0
 12
-10.7638082881
 22
-8.60105
 32
0.0
 13
-10.7638082881
 23
-8.60105
 33
0.0
  0
MTEXT
  5
117
330
110
100
AcDbEntity
  8
DXF_US-2215_V5_MODEL_DXF_U
 62
     0
100
AcDbMText
 10
-10.7638082881
 20
0.3979999999999997
 30
0.0
 40
0.125
 41
0.0
 71
     5
 72
     1
  1
\A1;17.9981
  0
POINT
  5
118
330
110
100
AcDbEntity
  8
DEFPOINTS
 62
     0
100
AcDbPoint
 10
-7.9513082881
 20
9.39705
 30
0.0
  0
POINT
  5
119
330
110
100
AcDbEntity
  8
DEFPOINTS
 62
     0
100
AcDbPoint
 10
-7.9513082881
 20
-8.60105
 30
0.0
  0
POINT
  5
11A
330
110
100
AcDbEntity
  8
DEFPOINTS
 62
     0
100
AcDbPoint
 10
-10.7638082881
 20
-8.60105
 30
0.0
  0
ENDBLK
  5
11C
330
110
100
AcDbEntity
  8
0
100
AcDbBlockEnd
  0
ENDSEC
  0
SECTION
  2
ENTITIES
  0
ARC
  5
8A
330
1F
100
AcDbEntity
  8
DXF_US-2215_V5_MODEL_DXF_U
 62
    18
100
AcDbCircle
 10
-0.3831252472999999
 20
-0.7392649174000003
 30
0.0
 40
0.2525461674000004
100
AcDbArc
 50
90.0
 51
175.0049731570998
  0
LINE
  5
8B
330
1F
100
AcDbEntity
  8
DXF_US-2215_V5_MODEL_DXF_U
 62
    18
100
AcDbLine
 10
-0.7961980505
 20
-2.5551952063
 30
0.0
 11
-0.6347123098
 21
-0.7172759057
 31
0.0
  0
ARC
  5
8C
330
1F
100
AcDbEntity
  8
DXF_US-2215_V5_MODEL_DXF_U
 62
    18
100
AcDbCircle
 10
-7.89780288076708
 20
-6.664853468616605
 30
0.0
 40
1.936935682142016
100
AcDbArc
 50
185.3976023580297
 51
268.417074936329
  0
LINE
  5
8D
330
1F
100
AcDbEntity
  8
DXF_US-2215_V5_MODEL_DXF_U
 62
    18
100
AcDbLine
 10
-1.7693582881
 20
9.39705
 30
0.0
 11
-7.9513082881
 21
9.39705
 31
0.0
  0
ARC
  5
8E
330
1F
100
AcDbEntity
  8
DXF_US-2215_V5_MODEL_DXF_U
 62
    18
100
AcDbCircle
 10
-7.86105308568257
 20
7.422336009751946
 30
0.0
 40
1.976775491765518
100
AcDbArc
 50
92.6169084844604
 51
173.7688533204925
  0
LINE
  5
8F
330
1F
100
AcDbEntity
  8
DXF_US-2215_V5_MODEL_DXF_U
 62
    18
100
AcDbLine
 10
0.8693632298
 20
-0.19921875
 30
0.0
 11
0.8693632298
 21
-0.48671875
 31
0.0
  0
LINE
  5
90
330
1F
100
AcDbEntity
  8
DXF_US-2215_V5_MODEL_DXF_U
 62
    18
100
AcDbLine
 10
0.5913632298
 20
-0.48671875
 30
0.0
 11
0.8693632298
 21
-0.20871875
 31
0.0
  0
LINE
  5
91
330
1F
100
AcDbEntity
  8
DXF_US-2215_V5_MODEL_DXF_U
 62
    18
100
AcDbLine
 10
0.4244025475
 20
-0.48671875
 30
0.0
 11
0.834811073
 21
-0.0907604296
 31
0.0
  0
POINT
  5
92
330
1F
100
AcDbEntity
  8
DXF_US-2215_V5_MODEL_DXF_U
 62
    18
100
AcDbPoint
 10
0.0914949194
 20
-0.48671875
 30
0.0
  0
LINE
  5
93
330
1F
100
AcDbEntity
  8
DXF_US-2215_V5_MODEL_DXF_U
 62
    18
100
AcDbLine
 10
0.7583632298
 20
-0.48671875
 30
0.0
 11
0.8693632298
 21
-0.37571875
 31
0.0
  0
ARC
  5
94
330
1F
100
AcDbEntity
  8
DXF_US-2215_V5_MODEL_DXF_U
 62
    18
100
AcDbCircle
 10
9.888854276474316
 20
-6.583909171157284
 30
0.0
 40
2.038148907088575
100
AcDbArc
 50
278.2335396923919
 51
356.6826682149774
  0
LINE
  5
95
330
1F
100
AcDbEntity
  8
DXF_US-2215_V5_MODEL_DXF_U
 62
     1
100
AcDbLine
 10
3.1062817957
 20
0.4851222284
 30
0.0
 11
3.0166015625
 21
0.3302400735
 31
0.0
  0
LINE
  5
96
330
1F
100
AcDbEntity
  8
DXF_US-2215_V5_MODEL_DXF_U
 62
     1
100
AcDbLine
 10
2.9261570974
 20
0.7208124641
 30
0.0
 11
3.1062817957
 21
0.4851222284
 31
0.0
  0
LINE
  5
97
330
1F
100
AcDbEntity
  8
DXF_US-2215_V5_MODEL_DXF_U
 62
     1
100
AcDbLine
 10
3.0166015625
 20
0.8554925988
 30
0.0
 11
3.0166015625
 21
1.23828125
 31
0.0
  0
TEXT
  5
99
330
1F
100
AcDbEntity
  8
DXF_US-2215_V5_MODEL_DXF_U
 62
     5
100
AcDbText
 10
1.6564140637
 20
2.5306619774
 30
0.0
 40
0.125
  1
COUNTERTOP
  7
TEXT33
100
AcDbText
  0
LINE
  5
9A
330
1F
100
AcDbEntity
  8
DXF_US-2215_V5_MODEL_DXF_U
 62
     1
100
AcDbLine
 10
3.0166015625
 20
0.8554925988
 30
0.0
 11
2.9261570974
 21
0.7208124641
 31
0.0
  0
LINE
  5
9B
330
1F
100
AcDbEntity
  8
DXF_US-2215_V5_MODEL_DXF_U
 62
     5
100
AcDbLine
 10
0.6808752235
 20
1.23828125
 30
0.0
 11
1.3764352678
 21
2.4380894001
 31
0.0
  0
LINE
  5
9C
330
1F
100
AcDbEntity
  8
DXF_US-2215_V5_MODEL_DXF_U
 62
     5
100
AcDbLine
 10
1.3764352678
 20
2.4380894001
 30
0.0
 11
1.6064193243
 21
2.4380894001
 31
0.0
  0
ARC
  5
9D
330
1F
100
AcDbEntity
  8
DXF_US-2215_V5_MODEL_DXF_U
 62
    18
100
AcDbCircle
 10
9.911841307431937
 20
4.700165931682321
 30
0.0
 40
2.015186163377745
100
AcDbArc
 50
3.062225706889974
 51
86.10607199431826
  0
LINE
  5
9E
330
1F
100
AcDbEntity
  8
DXF_US-2215_V5_MODEL_DXF_U
 62
    18
100
AcDbLine
 10
10.0486917119
 20
6.7107
 30
0.0
 11
2.0486917119
 21
6.7107
 31
0.0
  0
ARC
  5
9F
330
1F
100
AcDbEntity
  8
DXF_US-2215_V5_MODEL_DXF_U
 62
    18
100
AcDbCircle
 10
0.6818632298
 20
-0.1992187500000002
 30
0.0
 40
0.1875000000000002
100
AcDbArc
 50
0.0
 51
90.0
  0
LINE
  5
A0
330
1F
100
AcDbEntity
  8
DXF_US-2215_V5_MODEL_DXF_U
 62
    18
100
AcDbLine
 10
0.0914949194
 20
-0.48671875
 30
0.0
 11
0.5664949194
 21
-0.01171875
 31
0.0
  0
LINE
  5
A1
330
1F
100
AcDbEntity
  8
DXF_US-2215_V5_MODEL_DXF_U
 62
    18
100
AcDbLine
 10
0.2585280219
 20
-0.48671875
 30
0.0
 11
0.7278110029
 21
-0.0174357691
 31
0.0
  0
LINE
  5
A2
330
1F
100
AcDbEntity
  8
DXF_US-2215_V5_MODEL_DXF_U
 62
     1
100
AcDbLine
 10
3.0166015625
 20
-0.5887612795
 30
0.0
 11
3.0166015625
 21
-0.01171875
 31
0.0
  0
LINE
  5
A3
330
1F
100
AcDbEntity
  8
DXF_US-2215_V5_MODEL_DXF_U
 62
     1
100
AcDbLine
 10
3.0166015625
 20
-0.01171875
 30
0.0
 11
3.0166015625
 21
0.3302400735
 31
0.0
  0
DIMENSION
  5
A5
330
1F
100
AcDbEntity
  8
DXF_US-2215_V5_MODEL_DXF_U
 62
     5
100
AcDbDimension
  2
*D1
 10
12.7049417767409
 20
-8.601049999999999
 30
0.0
 11
12.7049417767409
 21
-0.945174999999999
 31
0.0
 70
    32
  3
ROTATEDDIM4
100
AcDbAlignedDimension
 13
10.0486917119
 23
6.7107
 33
0.0
 14
10.0486917767409
 24
-8.601049999999999
 34
0.0
 50
90.0
100
AcDbRotatedDimension
  0
LINE
  5
B4
330
1F
100
AcDbEntity
  8
DXF_US-2215_V5_MODEL_DXF_U
 62
    18
100
AcDbLine
 10
11.92415
 20
-6.7018486704
 30
0.0
 11
11.92415
 21
4.80781814431233
 31
0.0
  0
LINE
  5
B5
330
1F
100
AcDbEntity
  8
DXF_US-2215_V5_MODEL_DXF_U
 62
    18
100
AcDbLine
 10
-1.0278336568
 20
-1.9401135313
 30
0.0
 11
-0.7146363527
 21
-1.6269162272
 31
0.0
  0
LINE
  5
B6
330
1F
100
AcDbEntity
  8
DXF_US-2215_V5_MODEL_DXF_U
 62
    18
100
AcDbLine
 10
-0.9634744959
 20
-1.2076219601
 30
0.0
 11
-0.6502771918
 21
-0.8944246561
 31
0.0
  0
LINE
  5
B7
330
1F
100
AcDbEntity
  8
DXF_US-2215_V5_MODEL_DXF_U
 62
     5
100
AcDbLine
 10
-0.9917966446
 20
-1.5299651184
 30
0.0
 11
-2.4065449228
 21
-1.4056605999
 31
0.0
  0
LINE
  5
B8
330
1F
100
AcDbEntity
  8
DXF_US-2215_V5_MODEL_DXF_U
 62
    18
100
AcDbLine
 10
-1.043923447
 20
-2.1232364241
 30
0.0
 11
-0.7307261429
 21
-1.81003912
 31
0.0
  0
LINE
  5
B9
330
1F
100
AcDbEntity
  8
DXF_US-2215_V5_MODEL_DXF_U
 62
    18
100
AcDbLine
 10
-1.0600132372
 20
-2.3063593168
 30
0.0
 11
-0.7468159331
 21
-1.9931620128
 31
0.0
  0
LINE
  5
BA
330
1F
100
AcDbEntity
  8
DXF_US-2215_V5_MODEL_DXF_U
 62
     1
100
AcDbLine
 10
-1.0631048312
 20
-2.3415457068
 30
0.0
 11
-0.8951360812
 21
-2.4177175818
 31
0.0
  0
LINE
  5
BB
330
1F
100
AcDbEntity
  8
DXF_US-2215_V5_MODEL_DXF_U
 62
    18
100
AcDbLine
 10
-0.8707005386
 20
-2.4511128234
 30
0.0
 11
-0.7789955136
 21
-2.3594077983
 31
0.0
  0
TEXT
  5
BD
330
1F
100
AcDbEntity
  8
DXF_US-2215_V5_MODEL_DXF_U
 62
     5
100
AcDbText
 10
-2.8435859363
 20
-1.3193380226
 30
0.0
 40
0.125
  1
SINK
  7
TEXT54
100
AcDbText
  0
LINE
  5
BE
330
1F
100
AcDbEntity
  8
DXF_US-2215_V5_MODEL_DXF_U
 62
     1
100
AcDbLine
 10
-0.8951360812
 20
-2.4177175818
 30
0.0
 11
-0.8046550703
 21
-2.5413749634
 31
0.0
  0
LINE
  5
BF
330
1F
100
AcDbEntity
  8
DXF_US-2215_V5_MODEL_DXF_U
 62
     1
100
AcDbLine
 10
-0.8046550703
 20
-2.5413749634
 30
0.0
 11
-0.7779485812
 21
-2.5778738318
 31
0.0
  0
LINE
  5
C0
330
1F
100
AcDbEntity
  8
DXF_US-2215_V5_MODEL_DXF_U
 62
    18
100
AcDbLine
 10
-0.9795642861
 20
-1.3907448529
 30
0.0
 11
-0.666366982
 21
-1.0775475489
 31
0.0
  0
LINE
  5
C1
330
1F
100
AcDbEntity
  8
DXF_US-2215_V5_MODEL_DXF_U
 62
    18
100
AcDbLine
 10
-0.9956540763
 20
-1.5738677457
 30
0.0
 11
-0.6824567723
 21
-1.2606704416
 31
0.0
  0
LINE
  5
C2
330
1F
100
AcDbEntity
  8
DXF_US-2215_V5_MODEL_DXF_U
 62
    18
100
AcDbLine
 10
-0.9702672763
 20
-2.3836464585
 30
0.0
 11
-0.7629057234
 21
-2.1762849056
 31
0.0
  0
LINE
  5
C3
330
1F
100
AcDbEntity
  8
DXF_US-2215_V5_MODEL_DXF_U
 62
    18
100
AcDbLine
 10
-0.9473847057
 20
-1.0244990673
 30
0.0
 11
-0.6347123098
 21
-0.7172759057
 31
0.0
  0
LINE
  5
C4
330
1F
100
AcDbEntity
  8
DXF_US-2215_V5_MODEL_DXF_U
 62
    18
100
AcDbLine
 10
-1.0117438665
 20
-1.7569906385
 30
0.0
 11
-0.6985465625
 21
-1.4437933344
 31
0.0
  0
LINE
  5
C5
330
1F
100
AcDbEntity
  8
DXF_US-2215_V5_MODEL_DXF_U
 62
     1
100
AcDbLine
 10
-0.7779485812
 20
-2.5778738318
 30
0.0
 11
-0.5869198956
 21
-2.6697472975
 31
0.0
  0
LINE
  5
C6
330
1F
100
AcDbEntity
  8
DXF_US-2215_V5_MODEL_DXF_U
 62
     1
100
AcDbLine
 10
-1.2310735812
 20
-2.2653738318
 30
0.0
 11
-1.0631048312
 21
-2.3415457068
 31
0.0
  0
DIMENSION
  5
C8
330
1F
100
AcDbEntity
  8
DXF_US-2215_V5_MODEL_DXF_U
 62
     5
100
AcDbDimension
  2
*D2
 10
-0.8582567486
 20
-0.1623998274
 30
0.0
 11
0.0234099180666667
 21
-0.1623998274
 31
0.0
 70
    32
  3
ROTATEDDIM5
100
AcDbAlignedDimension
 13
-0.9833984375
 23
-0.01171875
 33
0.0
 14
-0.8582567486
 24
-0.01171875
 34
0.0
100
AcDbRotatedDimension
  0
TEXT
  5
D7
330
1F
100
AcDbEntity
  8
DXF_US-2215_V5_MODEL_DXF_U
 62
    18
100
AcDbText
 10
-2.9908949691
 20
-3.4725990251
 30
0.0
 40
0.125
  1
NOTE: THIS TEMPLATE IS FOR THE TYPE OF INSTALLATION SHOWN ABOVE.\PCOUNTERTOP WILL OVERHANG SINK BOWLS BY APPROXIMATELY 1/8".\PCHECK DIMENSIONS FOR PROPER FIT.
  7
TEXT66
100
AcDbText
  0
LINE
  5
D8
330
1F
100
AcDbEntity
  8
DXF_US-2215_V5_MODEL_DXF_U
 62
     3
100
AcDbLine
 10
-0.9833984375
 20
-0.01171875
 30
0.0
 11
3.0166015625
 21
-0.01171875
 31
0.0
  0
LINE
  5
D9
330
1F
100
AcDbEntity
  8
DXF_US-2215_V5_MODEL_DXF_U
 62
    18
100
AcDbLine
 10
-0.8582936478
 20
-0.01171875
 30
-1.0
 11
0.681863287
 21
-0.01171875
 31
-1.0
  0
LINE
  5
DA
330
1F
100
AcDbEntity
  8
DXF_US-2215_V5_MODEL_DXF_U
 62
    18
100
AcDbLine
 10
-0.8582936478
 20
-0.01171875
 30
-1.0
 11
0.6818632298
 21
-0.0112990796
 31
-1.0
  0
LINE
  5
DB
330
1F
100
AcDbEntity
  8
DXF_US-2215_V5_MODEL_DXF_U
 62
    18
100
AcDbLine
 10
-0.2425712858
 20
-0.48671875
 30
0.0
 11
0.2324287142
 21
-0.01171875
 31
0.0
  0
LINE
  5
DC
330
1F
100
AcDbEntity
  8
DXF_US-2215_V5_MODEL_DXF_U
 62
    18
100
AcDbLine
 10
-0.0755381832
 20
-0.48671875
 30
0.0
 11
0.3994618168
 21
-0.01171875
 31
0.0
  0
LINE
  5
DD
330
1F
100
AcDbEntity
  8
DXF_US-2215_V5_MODEL_DXF_U
 62
    18
100
AcDbLine
 10
-0.400688016
 20
-0.4873301722
 30
0.0
 11
0.0749234062
 21
-0.01171875
 31
0.0
  0
LINE
  5
DE
330
1F
100
AcDbEntity
  8
DXF_US-2215_V5_MODEL_DXF_U
 62
    18
100
AcDbLine
 10
-0.3831252473
 20
-0.48671875
 30
0.0
 11
0.8693632298
 21
-0.48671875
 31
0.0
  0
LINE
  5
DF
330
1F
100
AcDbEntity
  8
DXF_US-2215_V5_MODEL_DXF_U
 62
     3
100
AcDbLine
 10
2.7724269235
 20
1.23828125
 30
0.0
 11
3.0166015625
 21
0.994106611
 31
0.0
  0
LINE
  5
E0
330
1F
100
AcDbEntity
  8
DXF_US-2215_V5_MODEL_DXF_U
 62
     3
100
AcDbLine
 10
2.4383607183
 20
1.23828125
 30
0.0
 11
2.9380780735
 21
0.7385638949
 31
0.0
  0
LINE
  5
E1
330
1F
100
AcDbEntity
  8
DXF_US-2215_V5_MODEL_DXF_U
 62
     3
100
AcDbLine
 10
2.1042945132
 20
1.23828125
 30
0.0
 11
3.0166015625
 21
0.3259742007
 31
0.0
  0
LINE
  5
E2
330
1F
100
AcDbEntity
  8
DXF_US-2215_V5_MODEL_DXF_U
 62
     3
100
AcDbLine
 10
1.7702283081
 20
1.23828125
 30
0.0
 11
3.0166015625
 21
-0.0080920044
 31
0.0
  0
LINE
  5
E3
330
1F
100
AcDbEntity
  8
DXF_US-2215_V5_MODEL_DXF_U
 62
     3
100
AcDbLine
 10
1.4361621029
 20
1.23828125
 30
0.0
 11
2.6861621029
 21
-0.01171875
 31
0.0
  0
LINE
  5
E4
330
1F
100
AcDbEntity
  8
DXF_US-2215_V5_MODEL_DXF_U
 62
     3
100
AcDbLine
 10
1.1020958978
 20
1.23828125
 30
0.0
 11
2.3520958978
 21
-0.01171875
 31
0.0
  0
LINE
  5
E5
330
1F
100
AcDbEntity
  8
DXF_US-2215_V5_MODEL_DXF_U
 62
     3
100
AcDbLine
 10
0.7680296927
 20
1.23828125
 30
0.0
 11
2.0180296927
 21
-0.01171875
 31
0.0
  0
LINE
  5
E6
330
1F
100
AcDbEntity
  8
DXF_US-2215_V5_MODEL_DXF_U
 62
     3
100
AcDbLine
 10
0.4339634876
 20
1.23828125
 30
0.0
 11
1.6839634876
 21
-0.01171875
 31
0.0
  0
LINE
  5
E7
330
1F
100
AcDbEntity
  8
DXF_US-2215_V5_MODEL_DXF_U
 62
     3
100
AcDbLine
 10
0.0998972824
 20
1.23828125
 30
0.0
 11
1.3498972824
 21
-0.01171875
 31
0.0
  0
LINE
  5
E8
330
1F
100
AcDbEntity
  8
DXF_US-2215_V5_MODEL_DXF_U
 62
     3
100
AcDbLine
 10
-0.2341689227
 20
1.23828125
 30
0.0
 11
1.0158310773
 21
-0.01171875
 31
0.0
  0
LINE
  5
E9
330
1F
100
AcDbEntity
  8
DXF_US-2215_V5_MODEL_DXF_U
 62
     3
100
AcDbLine
 10
-0.5682351278
 20
1.23828125
 30
0.0
 11
0.6817648722
 21
-0.01171875
 31
0.0
  0
LINE
  5
EA
330
1F
100
AcDbEntity
  8
DXF_US-2215_V5_MODEL_DXF_U
 62
     3
100
AcDbLine
 10
-0.902301333
 20
1.23828125
 30
0.0
 11
0.347698667
 21
-0.01171875
 31
0.0
  0
LINE
  5
EB
330
1F
100
AcDbEntity
  8
DXF_US-2215_V5_MODEL_DXF_U
 62
     3
100
AcDbLine
 10
-0.9833984375
 20
0.9853121494
 30
0.0
 11
0.0136324619
 21
-0.01171875
 31
0.0
  0
LINE
  5
EC
330
1F
100
AcDbEntity
  8
DXF_US-2215_V5_MODEL_DXF_U
 62
     3
100
AcDbLine
 10
-0.9833984375
 20
0.6512459443
 30
0.0
 11
-0.3204337432
 21
-0.01171875
 31
0.0
  0
LINE
  5
ED
330
1F
100
AcDbEntity
  8
DXF_US-2215_V5_MODEL_DXF_U
 62
     3
100
AcDbLine
 10
-0.9833984375
 20
0.3171797392
 30
0.0
 11
-0.6544999483
 21
-0.01171875
 31
0.0
  0
LINE
  5
EE
330
1F
100
AcDbEntity
  8
DXF_US-2215_V5_MODEL_DXF_U
 62
     3
100
AcDbLine
 10
3.0166015625
 20
1.23828125
 30
0.0
 11
-0.9833984375
 21
1.23828125
 31
0.0
  0
TEXT
  5
F0
330
1F
100
AcDbEntity
  8
DXF_US-2215_V5_MODEL_DXF_U
 62
    18
100
AcDbText
 10
-0.875
 20
3.4458587956
 30
0.0
 40
0.125
  1
UNDERMOUNT KITCHEN SINK 
  7
TEXT90
100
AcDbText
  0
ARC
  5
F1
330
1F
100
AcDbEntity
  8
DXF_US-2215_V5_MODEL_DXF_U
 62
    18
100
AcDbCircle
 10
2.012691604863817
 20
9.048637053909879
 30
0.0
 40
2.338014230266757
100
AcDbArc
 50
200.4126286050774
 51
270.8822596898581
  0
ARC
  5
F2
330
1F
100
AcDbEntity
  8
DXF_US-2215_V5_MODEL_DXF_U
 62
    18
100
AcDbCircle
 10
-1.729802875710629
 20
7.78194114342437
 30
0.0
 40
1.615593157090711
100
AcDbArc
 50
16.21885022072061
 51
91.40294272933207
  0
DIMENSION
  5
F4
330
1F
100
AcDbEntity
  8
DXF_US-2215_V5_MODEL_DXF_U
 62
     5
100
AcDbDimension
  2
*D3
 10
11.92358797567033
 20
-9.241544735436799
 30
0.0
 11
1.048718987835164
 21
-9.241544735436799
 31
0.0
 70
    32
  3
ROTATEDDIM6
100
AcDbAlignedDimension
 13
-9.826150000000002
 23
-6.701848735436799
 33
0.0
 14
11.92358797567033
 24
-6.701848735436799
 34
0.0
100
AcDbRotatedDimension
  0
LINE
  5
102
330
1F
100
AcDbEntity
  8
DXF_US-2215_V5_MODEL_DXF_U
 62
    18
100
AcDbLine
 10
-7.9513082881
 20
-8.60105
 30
0.0
 11
10.18073412175671
 21
-8.60105
 31
0.0
  0
TEXT
  5
104
330
1F
100
AcDbEntity
  8
DXF_US-2215_V5_MODEL_DXF_U
 62
    18
100
AcDbText
 10
-0.625
 20
4.1181870186
 30
0.0
 40
0.3333333432674408
  1
US-2215
  7
TEXT96
100
AcDbText
  0
TEXT
  5
106
330
1F
100
AcDbEntity
  8
DXF_US-2215_V5_MODEL_DXF_U
 62
    18
100
AcDbText
 10
-1.125
 20
4.4620548485
 30
0.0
 40
0.125
  1
CUTOUT TEMPLATE FOR MODEL #: 
  7
TEXT97
100
AcDbText
  0
LINE
  5
107
330
1F
100
AcDbEntity
  8
DXF_US-2215_V5_MODEL_DXF_U
 62
    18
100
AcDbLine
 10
-0.9312949154
 20
-0.8413761746
 30
0.0
 11
-0.1016374909
 21
-0.01171875
 31
0.0
  0
LINE
  5
108
330
1F
100
AcDbEntity
  8
DXF_US-2215_V5_MODEL_DXF_U
 62
    18
100
AcDbLine
 10
-0.8830255448
 20
-0.2920074962
 30
0.0
 11
-0.6027367986
 21
-0.01171875
 31
0.0
  0
LINE
  5
109
330
1F
100
AcDbEntity
  8
DXF_US-2215_V5_MODEL_DXF_U
 62
    18
100
AcDbLine
 10
-1.063067932
 20
-2.3411260364
 30
0.0
 11
-0.8582567486
 21
-0.01171875
 31
0.0
  0
LINE
  5
10A
330
1F
100
AcDbEntity
  8
DXF_US-2215_V5_MODEL_DXF_U
 62
     3
100
AcDbLine
 10
-0.9833984375
 20
1.23828125
 30
0.0
 11
-0.9833984375
 21
-0.01171875
 31
0.0
  0
LINE
  5
10B
330
1F
100
AcDbEntity
  8
DXF_US-2215_V5_MODEL_DXF_U
 62
    18
100
AcDbLine
 10
-0.9152051252
 20
-0.6582532818
 30
0.0
 11
-0.2686705934
 21
-0.01171875
 31
0.0
  0
LINE
  5
10C
330
1F
100
AcDbEntity
  8
DXF_US-2215_V5_MODEL_DXF_U
 62
    18
100
AcDbLine
 10
-0.899115335
 20
-0.475130389
 30
0.0
 11
-0.435703696
 21
-0.01171875
 31
0.0
  0
LINE
  5
10D
330
1F
100
AcDbEntity
  8
DXF_US-2215_V5_MODEL_DXF_U
 62
    18
100
AcDbLine
 10
-9.82615
 20
7.636894771364976
 30
0.0
 11
-9.82615
 21
-6.847054523775611
 31
0.0
  0
DIMENSION
  5
10F
330
1F
100
AcDbEntity
  8
DXF_US-2215_V5_MODEL_DXF_U
 62
     5
100
AcDbDimension
  2
*D4
 10
-10.7638082881
 20
-8.60105
 30
0.0
 11
-10.7638082881
 21
0.3979999999999997
 31
0.0
 70
    32
  3
ROTATEDDIM7
100
AcDbAlignedDimension
 13
-7.9513082881
 23
9.39705
 33
0.0
 14
-7.9513082881
 24
-8.60105
 34
0.0
 50
90.0
100
AcDbRotatedDimension
  0
SOLID
  5
11D
330
1F
100
AcDbEntity
  8
DXF_US-2215_V5_MODEL_DXF_U
 62
    18
100
AcDbTrace
 10
0.6808752235
 20
1.23828125
 30
0.0
 11
0.7521895309063844
 21
1.485911053454971
 31
0.0
 12
0.6808752235
 22
1.23828125
 32
0.0
 13
0.8603312846020903
 23
1.423218461327853
 33
0.0
  0
POLYLINE
  5
11E
330
1F
100
AcDbEntity
  8
DXF_US-2215_V5_MODEL_DXF_U
 62
    18
100
AcDb3dPolyline
 66
     1
 10
0.0
 20
0.0
 30
0.0
 70
     8
  0
VERTEX
  5
11F
330
11E
100
AcDbEntity
  8
DXF_US-2215_V5_MODEL_DXF_U
 62
    18
100
AcDbVertex
100
AcDb3dPolylineVertex
 10
0.6808752417564392
 20
1.23828125
 30
0.0
 70
    32
  0
VERTEX
  5
120
330
11E
100
AcDbEntity
  8
DXF_US-2215_V5_MODEL_DXF_U
 62
    18
100
AcDbVertex
100
AcDb3dPolylineVertex
 10
0.7521895170211792
 20
1.485911011695862
 30
0.0
 70
    32
  0
VERTEX
  5
121
330
11E
100
AcDbEntity
  8
DXF_US-2215_V5_MODEL_DXF_U
 62
    18
100
AcDbVertex
100
AcDb3dPolylineVertex
 10
0.8603312969207764
 20
1.423218488693237
 30
0.0
 70
    32
  0
VERTEX
  5
122
330
11E
100
AcDbEntity
  8
DXF_US-2215_V5_MODEL_DXF_U
 62
    18
100
AcDbVertex
100
AcDb3dPolylineVertex
 10
0.6808752417564392
 20
1.23828125
 30
0.0
 70
    32
  0
VERTEX
  5
123
330
11E
100
AcDbEntity
  8
DXF_US-2215_V5_MODEL_DXF_U
 62
    18
100
AcDbVertex
100
AcDb3dPolylineVertex
 10
0.6808752417564392
 20
1.23828125
 30
0.0
 70
    32
  0
SEQEND
  5
124
330
11E
100
AcDbEntity
  8
DXF_US-2215_V5_MODEL_DXF_U
 62
    18
  0
POLYLINE
  5
125
330
1F
100
AcDbEntity
  8
DXF_US-2215_V5_MODEL_DXF_U
 62
    18
100
AcDb3dPolyline
 66
     1
 10
0.0
 20
0.0
 30
0.0
 70
     8
  0
VERTEX
  5
126
330
125
100
AcDbEntity
  8
DXF_US-2215_V5_MODEL_DXF_U
 62
    18
100
AcDbVertex
100
AcDb3dPolylineVertex
 10
0.6808752417564392
 20
1.23828125
 30
0.0
 70
    32
  0
VERTEX
  5
127
330
125
100
AcDbEntity
  8
DXF_US-2215_V5_MODEL_DXF_U
 62
    18
100
AcDbVertex
100
AcDb3dPolylineVertex
 10
0.7521895170211792
 20
1.485911011695862
 30
0.0
 70
    32
  0
VERTEX
  5
128
330
125
100
AcDbEntity
  8
DXF_US-2215_V5_MODEL_DXF_U
 62
    18
100
AcDbVertex
100
AcDb3dPolylineVertex
 10
0.8603312969207764
 20
1.423218488693237
 30
0.0
 70
    32
  0
VERTEX
  5
129
330
125
100
AcDbEntity
  8
DXF_US-2215_V5_MODEL_DXF_U
 62
    18
100
AcDbVertex
100
AcDb3dPolylineVertex
 10
0.6808752417564392
 20
1.23828125
 30
0.0
 70
    32
  0
VERTEX
  5
12A
330
125
100
AcDbEntity
  8
DXF_US-2215_V5_MODEL_DXF_U
 62
    18
100
AcDbVertex
100
AcDb3dPolylineVertex
 10
0.6808752417564392
 20
1.23828125
 30
0.0
 70
    32
  0
SEQEND
  5
12B
330
125
100
AcDbEntity
  8
DXF_US-2215_V5_MODEL_DXF_U
 62
    18
  0
POLYLINE
  5
12C
330
1F
100
AcDbEntity
  8
DXF_US-2215_V5_MODEL_DXF_U
 62
    18
100
AcDb3dPolyline
 66
     1
 10
0.0
 20
0.0
 30
0.0
 70
     8
  0
VERTEX
  5
12D
330
12C
100
AcDbEntity
  8
DXF_US-2215_V5_MODEL_DXF_U
 62
    18
100
AcDbVertex
100
AcDb3dPolylineVertex
 10
0.6808752417564392
 20
1.23828125
 30
0.0
 70
    32
  0
VERTEX
  5
12E
330
12C
100
AcDbEntity
  8
DXF_US-2215_V5_MODEL_DXF_U
 62
    18
100
AcDbVertex
100
AcDb3dPolylineVertex
 10
0.7521895170211792
 20
1.485911011695862
 30
0.0
 70
    32
  0
VERTEX
  5
12F
330
12C
100
AcDbEntity
  8
DXF_US-2215_V5_MODEL_DXF_U
 62
    18
100
AcDbVertex
100
AcDb3dPolylineVertex
 10
0.8603312969207764
 20
1.423218488693237
 30
0.0
 70
    32
  0
VERTEX
  5
130
330
12C
100
AcDbEntity
  8
DXF_US-2215_V5_MODEL_DXF_U
 62
    18
100
AcDbVertex
100
AcDb3dPolylineVertex
 10
0.6808752417564392
 20
1.23828125
 30
0.0
 70
    32
  0
VERTEX
  5
131
330
12C
100
AcDbEntity
  8
DXF_US-2215_V5_MODEL_DXF_U
 62
    18
100
AcDbVertex
100
AcDb3dPolylineVertex
 10
0.6808752417564392
 20
1.23828125
 30
0.0
 70
    32
  0
SEQEND
  5
132
330
12C
100
AcDbEntity
  8
DXF_US-2215_V5_MODEL_DXF_U
 62
    18
  0
SOLID
  5
133
330
1F
100
AcDbEntity
  8
DXF_US-2215_V5_MODEL_DXF_U
 62
    18
100
AcDbTrace
 10
-0.9917966446
 20
-1.5299651184
 30
0.0
 11
-1.24630758440895
 21
-1.57034372062401
 31
0.0
 12
-0.9917966446
 22
-1.5299651184
 32
0.0
 13
-1.235366816066255
 23
-1.445823442805209
 33
0.0
  0
POLYLINE
  5
134
330
1F
100
AcDbEntity
  8
DXF_US-2215_V5_MODEL_DXF_U
 62
    18
100
AcDb3dPolyline
 66
     1
 10
0.0
 20
0.0
 30
0.0
 70
     8
  0
VERTEX
  5
135
330
134
100
AcDbEntity
  8
DXF_US-2215_V5_MODEL_DXF_U
 62
    18
100
AcDbVertex
100
AcDb3dPolylineVertex
 10
-0.9917966723442078
 20
-1.529965162277222
 30
0.0
 70
    32
  0
VERTEX
  5
136
330
134
100
AcDbEntity
  8
DXF_US-2215_V5_MODEL_DXF_U
 62
    18
100
AcDbVertex
100
AcDb3dPolylineVertex
 10
-1.246307611465454
 20
-1.570343732833862
 30
0.0
 70
    32
  0
VERTEX
  5
137
330
134
100
AcDbEntity
  8
DXF_US-2215_V5_MODEL_DXF_U
 62
    18
100
AcDbVertex
100
AcDb3dPolylineVertex
 10
-1.235366821289062
 20
-1.445823431015015
 30
0.0
 70
    32
  0
VERTEX
  5
138
330
134
100
AcDbEntity
  8
DXF_US-2215_V5_MODEL_DXF_U
 62
    18
100
AcDbVertex
100
AcDb3dPolylineVertex
 10
-0.9917966723442078
 20
-1.529965162277222
 30
0.0
 70
    32
  0
VERTEX
  5
139
330
134
100
AcDbEntity
  8
DXF_US-2215_V5_MODEL_DXF_U
 62
    18
100
AcDbVertex
100
AcDb3dPolylineVertex
 10
-0.9917966723442078
 20
-1.529965162277222
 30
0.0
 70
    32
  0
SEQEND
  5
13A
330
134
100
AcDbEntity
  8
DXF_US-2215_V5_MODEL_DXF_U
 62
    18
  0
POLYLINE
  5
13B
330
1F
100
AcDbEntity
  8
DXF_US-2215_V5_MODEL_DXF_U
 62
    18
100
AcDb3dPolyline
 66
     1
 10
0.0
 20
0.0
 30
0.0
 70
     8
  0
VERTEX
  5
13C
330
13B
100
AcDbEntity
  8
DXF_US-2215_V5_MODEL_DXF_U
 62
    18
100
AcDbVertex
100
AcDb3dPolylineVertex
 10
-0.9917966723442078
 20
-1.529965162277222
 30
0.0
 70
    32
  0
VERTEX
  5
13D
330
13B
100
AcDbEntity
  8
DXF_US-2215_V5_MODEL_DXF_U
 62
    18
100
AcDbVertex
100
AcDb3dPolylineVertex
 10
-1.246307611465454
 20
-1.570343732833862
 30
0.0
 70
    32
  0
VERTEX
  5
13E
330
13B
100
AcDbEntity
  8
DXF_US-2215_V5_MODEL_DXF_U
 62
    18
100
AcDbVertex
100
AcDb3dPolylineVertex
 10
-1.235366821289062
 20
-1.445823431015015
 30
0.0
 70
    32
  0
VERTEX
  5
13F
330
13B
100
AcDbEntity
  8
DXF_US-2215_V5_MODEL_DXF_U
 62
    18
100
AcDbVertex
100
AcDb3dPolylineVertex
 10
-0.9917966723442078
 20
-1.529965162277222
 30
0.0
 70
    32
  0
VERTEX
  5
140
330
13B
100
AcDbEntity
  8
DXF_US-2215_V5_MODEL_DXF_U
 62
    18
100
AcDbVertex
100
AcDb3dPolylineVertex
 10
-0.9917966723442078
 20
-1.529965162277222
 30
0.0
 70
    32
  0
SEQEND
  5
141
330
13B
100
AcDbEntity
  8
DXF_US-2215_V5_MODEL_DXF_U
 62
    18
  0
POLYLINE
  5
142
330
1F
100
AcDbEntity
  8
DXF_US-2215_V5_MODEL_DXF_U
 62
    18
100
AcDb3dPolyline
 66
     1
 10
0.0
 20
0.0
 30
0.0
 70
     8
  0
VERTEX
  5
143
330
142
100
AcDbEntity
  8
DXF_US-2215_V5_MODEL_DXF_U
 62
    18
100
AcDbVertex
100
AcDb3dPolylineVertex
 10
-0.9917966723442078
 20
-1.529965162277222
 30
0.0
 70
    32
  0
VERTEX
  5
144
330
142
100
AcDbEntity
  8
DXF_US-2215_V5_MODEL_DXF_U
 62
    18
100
AcDbVertex
100
AcDb3dPolylineVertex
 10
-1.246307611465454
 20
-1.570343732833862
 30
0.0
 70
    32
  0
VERTEX
  5
145
330
142
100
AcDbEntity
  8
DXF_US-2215_V5_MODEL_DXF_U
 62
    18
100
AcDbVertex
100
AcDb3dPolylineVertex
 10
-1.235366821289062
 20
-1.445823431015015
 30
0.0
 70
    32
  0
VERTEX
  5
146
330
142
100
AcDbEntity
  8
DXF_US-2215_V5_MODEL_DXF_U
 62
    18
100
AcDbVertex
100
AcDb3dPolylineVertex
 10
-0.9917966723442078
 20
-1.529965162277222
 30
0.0
 70
    32
  0
VERTEX
  5
147
330
142
100
AcDbEntity
  8
DXF_US-2215_V5_MODEL_DXF_U
 62
    18
100
AcDbVertex
100
AcDb3dPolylineVertex
 10
-0.9917966723442078
 20
-1.529965162277222
 30
0.0
 70
    32
  0
SEQEND
  5
148
330
142
100
AcDbEntity
  8
DXF_US-2215_V5_MODEL_DXF_U
 62
    18
  0
VIEWPORT
  5
3F
330
1B
100
AcDbEntity
 67
     1
  8
0
100
AcDbViewport
 10
0.0
 20
0.0
 30
0.0
 40
1.0
 41
1.0
 68
     1
 69
     1
1001
ACAD
1000
MVIEW
1002
{
1070
    16
1010
0.0
1020
0.0
1030
0.0
1010
0.0
1020
0.0
1030
1.0
1040
0.0
1040
1.0
1040
0.0
1040
0.0
1040
50.0
1040
0.0
1040
0.0
1070
     0
1070
   100
1070
     0
1070
     3
1070
     0
1070
     0
1070
     0
1070
     0
1040
0.0
1040
0.0
1040
0.0
1040
0.5
1040
0.5
1040
0.0
1040
0.0
1070
     0
1002
{
1002
}
1002
}
  0
ENDSEC
  0
SECTION
  2
OBJECTS
  0
DICTIONARY
  5
C
330
0
100
AcDbDictionary
  3
ACAD_GROUP
350
D
  3
ACAD_LAYOUT
350
1A
  3
ACAD_MLINESTYLE
350
17
  3
ACAD_PLOTSETTINGS
350
19
  3
ACAD_TABLESTYLE
350
169
  3
ACAD_VISUALSTYLE
350
2A
  3
ACDBHEADERROUNDTRIPXREC
350
149
  0
DICTIONARY
  5
D
102
{ACAD_REACTORS
330
C
102
}
330
C
100
AcDbDictionary
  0
DICTIONARY
  5
1A
102
{ACAD_REACTORS
330
C
102
}
330
C
100
AcDbDictionary
  0
DICTIONARY
  5
17
102
{ACAD_REACTORS
330
C
102
}
330
C
100
AcDbDictionary
  3
STANDARD
350
18
  0
DICTIONARY
  5
19
102
{ACAD_REACTORS
330
C
102
}
330
C
100
AcDbDictionary
  0
DICTIONARY
  5
169
102
{ACAD_REACTORS
330
C
102
}
330
C
100
AcDbDictionary
  0
DICTIONARY
  5
2A
102
{ACAD_REACTORS
330
C
102
}
330
C
100
AcDbDictionary
  3
2DWIREFRAME
350
2F
  3
3D_HIDDEN
350
31
  3
3DWIREFRAME
350
30
  3
BASIC
350
32
  3
BRIGHTEN
350
36
  3
COLORCHANGE
350
3A
  3
CONCEPTUAL
350
34
  3
DIM
350
35
  3
FACEPATTERN
350
39
  3
FLAT
350
2B
  3
FLATWITHEDGES
350
2C
  3
GOURAUD
350
2D
  3
GOURAUDWITHEDGES
350
2E
  3
LINEPATTERN
350
38
  3
REALISTIC
350
33
  3
THICKEN
350
37
  0
DICTIONARY
  5
149
102
{ACAD_REACTORS
330
C
102
}
330
C
100
AcDbDictionary
  3
CEPSNTYPE
350
152
  3
DIMSTYLEDATA
350
168
  3
FINGERPRINTGUID
350
153
  3
HYPERLINKBASE
350
14C
  3
INSUNITS
350
151
  3
LAYOUTDICT
350
14E
  3
LWETCUNION
350
150
  3
PLOTSETDICT
350
14F
  3
PSVPSCALE
350
155
  3
PUCSBASE
350
158
  3
PUCSORGBACK
350
15E
  3
PUCSORGBOTTOM
350
15A
  3
PUCSORGFRONT
350
15D
  3
PUCSORGLEFT
350
15B
  3
PUCSORGRIGHT
350
15C
  3
PUCSORGTOP
350
159
  3
PUCSORTHOREF
350
156
  3
PUCSORTHOVIEW
350
157
  3
STYLESHEET
350
14D
  3
TSTACKALIGN
350
14A
  3
TSTACKSIZE
350
14B
  3
UCSBASE
350
161
  3
UCSORGBACK
350
167
  3
UCSORGBOTTOM
350
163
  3
UCSORGFRONT
350
166
  3
UCSORGLEFT
350
164
  3
UCSORGRIGHT
350
165
  3
UCSORGTOP
350
162
  3
UCSORTHOREF
350
15F
  3
UCSORTHOVIEW
350
160
  3
VERSIONGUID
350
154
  0
MLINESTYLE
  5
18
102
{ACAD_REACTORS
330
17
102
}
330
17
100
AcDbMlineStyle
  2
Standard
 70
     0
  3

 62
   256
 51
90.0
 52
90.0
 71
     2
 49
0.5
 62
   256
  6
BYLAYER
 49
-0.5
 62
   256
  6
BYLAYER
  0
VISUALSTYLE
  5
2F
102
{ACAD_REACTORS
330
2A
102
}
330
2A
100
AcDbVisualStyle
  2
2dWireframe
 70
     4
 71
     0
 72
     2
 73
     0
 90
        0
 40
-0.6
 41
-30.0
 62
     5
 63
     7
 74
     1
 91
        4
 64
     7
 65
   257
 75
     1
175
     1
 42
1.0
 92
        0
 66
   257
 43
1.0
 76
     1
 77
     6
 78
     2
 67
     7
 79
     5
170
     0
171
     0
290
     0
174
     0
 93
        1
 44
0.0
173
     0
291
     0
 45
0.0
1001
ACAD
1000
AcDbSavedByObjectVersion
1070
     0
  0
VISUALSTYLE
  5
31
102
{ACAD_REACTORS
330
2A
102
}
330
2A
100
AcDbVisualStyle
  2
3D Hidden
 70
     6
 71
     1
 72
     2
 73
     2
 90
        0
 40
-0.6
 41
-30.0
 62
     5
 63
     7
 74
     2
 91
        2
 64
     7
 65
   257
 75
     2
175
     1
 42
40.0
 92
        0
 66
   257
 43
1.0
 76
     1
 77
     6
 78
     2
 67
     7
 79
     3
170
     0
171
     0
290
     0
174
     0
 93
        1
 44
0.0
173
     0
291
     0
 45
0.0
1001
ACAD
1000
AcDbSavedByObjectVersion
1070
     0
  0
VISUALSTYLE
  5
30
102
{ACAD_REACTORS
330
2A
102
}
330
2A
100
AcDbVisualStyle
  2
3dWireframe
 70
     5
 71
     0
 72
     2
 73
     0
 90
        0
 40
-0.6
 41
-30.0
 62
     5
 63
     7
 74
     1
 91
        4
 64
     7
 65
   257
 75
     1
175
     1
 42
1.0
 92
        0
 66
   257
 43
1.0
 76
     1
 77
     6
 78
     2
 67
     7
 79
     5
170
     0
171
     0
290
     0
174
     0
 93
        1
 44
0.0
173
     0
291
     0
 45
0.0
1001
ACAD
1000
AcDbSavedByObjectVersion
1070
     0
  0
VISUALSTYLE
  5
32
102
{ACAD_REACTORS
330
2A
102
}
330
2A
100
AcDbVisualStyle
  2
Basic
 70
     7
 71
     1
 72
     0
 73
     1
 90
        0
 40
-0.6
 41
-30.0
 62
     5
 63
     7
 74
     0
 91
        4
 64
     7
 65
   257
 75
     1
175
     1
 42
1.0
 92
        8
 66
     7
 43
1.0
 76
     1
 77
     6
 78
     2
 67
     7
 79
     5
170
     0
171
     0
290
     0
174
     0
 93
        1
 44
0.0
173
     0
291
     1
 45
0.0
1001
ACAD
1000
AcDbSavedByObjectVersion
1070
     0
  0
VISUALSTYLE
  5
36
102
{ACAD_REACTORS
330
2A
102
}
330
2A
100
AcDbVisualStyle
  2
Brighten
 70
    12
 71
     2
 72
     2
 73
     0
 90
        0
 40
-0.6
 41
-30.0
 62
     5
 63
     7
 74
     1
 91
        4
 64
     7
 65
   257
 75
     1
175
     1
 42
1.0
 92
        8
 66
     7
 43
1.0
 76
     1
 77
     6
 78
     2
 67
     7
 79
     5
170
     0
171
     0
290
     0
174
     0
 93
        1
 44
50.0
173
     0
291
     1
 45
0.0
1001
ACAD
1000
AcDbSavedByObjectVersion
1070
     0
  0
VISUALSTYLE
  5
3A
102
{ACAD_REACTORS
330
2A
102
}
330
2A
100
AcDbVisualStyle
  2
ColorChange
 70
    16
 71
     2
 72
     2
 73
     3
 90
        0
 40
-0.6
 41
-30.0
 62
     5
 63
     8
 74
     1
 91
        4
 64
     7
 65
   257
 75
     1
175
     1
 42
1.0
 92
        8
 66
     8
 43
1.0
 76
     1
 77
     6
 78
     2
 67
     7
 79
     5
170
     0
171
     0
290
     0
174
     0
 93
        1
 44
0.0
173
     0
291
     1
 45
0.0
1001
ACAD
1000
AcDbSavedByObjectVersion
1070
     0
  0
VISUALSTYLE
  5
34
102
{ACAD_REACTORS
330
2A
102
}
330
2A
100
AcDbVisualStyle
  2
Conceptual
 70
     9
 71
     3
 72
     2
 73
     0
 90
        0
 40
-0.6
 41
-30.0
 62
     5
 63
     7
 74
     2
 91
        2
 64
     7
 65
   257
 75
     1
175
     1
 42
40.0
 92
        8
 66
     7
 43
1.0
 76
     1
 77
     6
 78
     2
 67
     7
 79
     3
170
     0
171
     0
290
     0
174
     0
 93
        1
 44
0.0
173
     0
291
     0
 45
0.0
1001
ACAD
1000
AcDbSavedByObjectVersion
1070
     0
  0
VISUALSTYLE
  5
35
102
{ACAD_REACTORS
330
2A
102
}
330
2A
100
AcDbVisualStyle
  2
Dim
 70
    11
 71
     2
 72
     2
 73
     0
 90
        0
 40
-0.6
 41
-30.0
 62
     5
 63
     7
 74
     1
 91
        4
 64
     7
 65
   257
 75
     1
175
     1
 42
1.0
 92
        8
 66
     7
 43
1.0
 76
     1
 77
     6
 78
     2
 67
     7
 79
     5
170
     0
171
     0
290
     0
174
     0
 93
        1
 44
-50.0
173
     0
291
     1
 45
0.0
1001
ACAD
1000
AcDbSavedByObjectVersion
1070
     0
  0
VISUALSTYLE
  5
39
102
{ACAD_REACTORS
330
2A
102
}
330
2A
100
AcDbVisualStyle
  2
Facepattern
 70
    15
 71
     2
 72
     2
 73
     0
 90
        0
 40
-0.6
 41
-30.0
 62
     5
 63
     7
 74
     1
 91
        4
 64
     7
 65
   257
 75
     1
175
     1
 42
1.0
 92
        8
 66
     7
 43
1.0
 76
     1
 77
     6
 78
     2
 67
     7
 79
     5
170
     0
171
     0
290
     0
174
     0
 93
        1
 44
0.0
173
     0
291
     1
 45
0.0
1001
ACAD
1000
AcDbSavedByObjectVersion
1070
     0
  0
VISUALSTYLE
  5
2B
102
{ACAD_REACTORS
330
2A
102
}
330
2A
100
AcDbVisualStyle
  2
Flat
 70
     0
 71
     2
 72
     1
 73
     1
 90
        2
 40
-0.6
 41
30.0
 62
     5
 63
     7
 74
     0
 91
        4
 64
     7
 65
   257
 75
     1
175
     1
 42
1.0
 92
        8
 66
     7
 43
1.0
 76
     1
 77
     6
 78
     2
 67
     7
 79
     5
170
     0
171
     0
290
     0
174
     0
 93
       13
 44
0.0
173
     0
291
     1
 45
0.0
1001
ACAD
1000
AcDbSavedByObjectVersion
1070
     0
  0
VISUALSTYLE
  5
2C
102
{ACAD_REACTORS
330
2A
102
}
330
2A
100
AcDbVisualStyle
  2
FlatWithEdges
 70
     1
 71
     2
 72
     1
 73
     1
 90
        2
 40
-0.6
 41
30.0
 62
     5
 63
     7
 74
     1
 91
        4
 64
     7
 65
   257
 75
     1
175
     1
 42
1.0
 92
        0
 66
   257
 43
1.0
 76
     1
 77
     6
 78
     2
 67
     7
 79
     5
170
     0
171
     0
290
     0
174
     0
 93
       13
 44
0.0
173
     0
291
     1
 45
0.0
1001
ACAD
1000
AcDbSavedByObjectVersion
1070
     0
  0
VISUALSTYLE
  5
2D
102
{ACAD_REACTORS
330
2A
102
}
330
2A
100
AcDbVisualStyle
  2
Gouraud
 70
     2
 71
     2
 72
     2
 73
     1
 90
        2
 40
-0.6
 41
30.0
 62
     5
 63
     7
 74
     0
 91
        4
 64
     7
 65
   257
 75
     1
175
     1
 42
1.0
 92
        0
 66
     7
 43
1.0
 76
     1
 77
     6
 78
     2
 67
     7
 79
     5
170
     0
171
     0
290
     0
174
     0
 93
       13
 44
0.0
173
     0
291
     1
 45
0.0
1001
ACAD
1000
AcDbSavedByObjectVersion
1070
     0
  0
VISUALSTYLE
  5
2E
102
{ACAD_REACTORS
330
2A
102
}
330
2A
100
AcDbVisualStyle
  2
GouraudWithEdges
 70
     3
 71
     2
 72
     2
 73
     1
 90
        2
 40
-0.6
 41
30.0
 62
     5
 63
     7
 74
     1
 91
        4
 64
     7
 65
   257
 75
     1
175
     1
 42
1.0
 92
        0
 66
   257
 43
1.0
 76
     1
 77
     6
 78
     2
 67
     7
 79
     5
170
     0
171
     0
290
     0
174
     0
 93
       13
 44
0.0
173
     0
291
     1
 45
0.0
1001
ACAD
1000
AcDbSavedByObjectVersion
1070
     0
  0
VISUALSTYLE
  5
38
102
{ACAD_REACTORS
330
2A
102
}
330
2A
100
AcDbVisualStyle
  2
Linepattern
 70
    14
 71
     2
 72
     2
 73
     0
 90
        0
 40
-0.6
 41
-30.0
 62
     5
 63
     7
 74
     1
 91
        4
 64
     7
 65
   257
 75
     7
175
     7
 42
1.0
 92
        8
 66
     7
 43
1.0
 76
     1
 77
     6
 78
     2
 67
     7
 79
     5
170
     0
171
     0
290
     0
174
     0
 93
        1
 44
0.0
173
     0
291
     1
 45
0.0
1001
ACAD
1000
AcDbSavedByObjectVersion
1070
     0
  0
VISUALSTYLE
  5
33
102
{ACAD_REACTORS
330
2A
102
}
330
2A
100
AcDbVisualStyle
  2
Realistic
 70
     8
 71
     2
 72
     2
 73
     0
 90
        0
 40
-0.6
 41
-30.0
 62
     5
 63
     7
 74
     1
 91
        0
 64
     7
 65
   257
 75
     1
175
     1
 42
1.0
 92
        8
 66
     8
 43
1.0
 76
     1
 77
     6
 78
     2
 67
     7
 79
     5
170
     0
171
     0
290
     0
174
     0
 93
       13
 44
0.0
173
     0
291
     0
 45
0.0
1001
ACAD
1000
AcDbSavedByObjectVersion
1070
     0
  0
VISUALSTYLE
  5
37
102
{ACAD_REACTORS
330
2A
102
}
330
2A
100
AcDbVisualStyle
  2
Thicken
 70
    13
 71
     2
 72
     2
 73
     0
 90
        0
 40
-0.6
 41
-30.0
 62
     5
 63
     7
 74
     1
 91
        4
 64
     7
 65
   257
 75
     1
175
     1
 42
1.0
 92
       12
 66
     7
 43
1.0
 76
     1
 77
     6
 78
     2
 67
     7
 79
     5
170
     0
171
     0
290
     0
174
     0
 93
        1
 44
0.0
173
     0
291
     1
 45
0.0
1001
ACAD
1000
AcDbSavedByObjectVersion
1070
     0
  0
XRECORD
  5
152
102
{ACAD_REACTORS
330
149
102
}
330
149
100
AcDbXrecord
 90
        0
  0
XRECORD
  5
168
102
{ACAD_REACTORS
330
149
102
}
330
149
100
AcDbXrecord
1000
DSTYLE
1002
{
1070
   340
340
11
1002
}
  0
XRECORD
  5
153
102
{ACAD_REACTORS
330
149
102
}
330
149
100
AcDbXrecord
  1
{11FE5D96-2BF3-4639-AB8E-8E98DBE354B2}
  0
XRECORD
  5
14C
102
{ACAD_REACTORS
330
149
102
}
330
149
100
AcDbXrecord
  1

  0
XRECORD
  5
151
102
{ACAD_REACTORS
330
149
102
}
330
149
100
AcDbXrecord
 90
        1
  0
XRECORD
  5
14E
102
{ACAD_REACTORS
330
149
102
}
330
149
100
AcDbXrecord
340
1A
  0
XRECORD
  5
150
102
{ACAD_REACTORS
330
149
102
}
330
149
100
AcDbXrecord
 90
    10781
  0
XRECORD
  5
14F
102
{ACAD_REACTORS
330
149
102
}
330
149
100
AcDbXrecord
340
19
  0
XRECORD
  5
155
102
{ACAD_REACTORS
330
149
102
}
330
149
100
AcDbXrecord
 40
0.0
  0
XRECORD
  5
158
102
{ACAD_REACTORS
330
149
102
}
330
149
100
AcDbXrecord
340
0
  0
XRECORD
  5
15E
102
{ACAD_REACTORS
330
149
102
}
330
149
100
AcDbXrecord
 10
0.0
 20
0.0
 30
0.0
  0
XRECORD
  5
15A
102
{ACAD_REACTORS
330
149
102
}
330
149
100
AcDbXrecord
 10
0.0
 20
0.0
 30
0.0
  0
XRECORD
  5
15D
102
{ACAD_REACTORS
330
149
102
}
330
149
100
AcDbXrecord
 10
0.0
 20
0.0
 30
0.0
  0
XRECORD
  5
15B
102
{ACAD_REACTORS
330
149
102
}
330
149
100
AcDbXrecord
 10
0.0
 20
0.0
 30
0.0
  0
XRECORD
  5
15C
102
{ACAD_REACTORS
330
149
102
}
330
149
100
AcDbXrecord
 10
0.0
 20
0.0
 30
0.0
  0
XRECORD
  5
159
102
{ACAD_REACTORS
330
149
102
}
330
149
100
AcDbXrecord
 10
0.0
 20
0.0
 30
0.0
  0
XRECORD
  5
156
102
{ACAD_REACTORS
330
149
102
}
330
149
100
AcDbXrecord
340
0
  0
XRECORD
  5
157
102
{ACAD_REACTORS
330
149
102
}
330
149
100
AcDbXrecord
 70
     0
  0
XRECORD
  5
14D
102
{ACAD_REACTORS
330
149
102
}
330
149
100
AcDbXrecord
  1

  0
XRECORD
  5
14A
102
{ACAD_REACTORS
330
149
102
}
330
149
100
AcDbXrecord
 90
        1
  0
XRECORD
  5
14B
102
{ACAD_REACTORS
330
149
102
}
330
149
100
AcDbXrecord
 90
       70
  0
XRECORD
  5
161
102
{ACAD_REACTORS
330
149
102
}
330
149
100
AcDbXrecord
340
0
  0
XRECORD
  5
167
102
{ACAD_REACTORS
330
149
102
}
330
149
100
AcDbXrecord
 10
0.0
 20
0.0
 30
0.0
  0
XRECORD
  5
163
102
{ACAD_REACTORS
330
149
102
}
330
149
100
AcDbXrecord
 10
0.0
 20
0.0
 30
0.0
  0
XRECORD
  5
166
102
{ACAD_REACTORS
330
149
102
}
330
149
100
AcDbXrecord
 10
0.0
 20
0.0
 30
0.0
  0
XRECORD
  5
164
102
{ACAD_REACTORS
330
149
102
}
330
149
100
AcDbXrecord
 10
0.0
 20
0.0
 30
0.0
  0
XRECORD
  5
165
102
{ACAD_REACTORS
330
149
102
}
330
149
100
AcDbXrecord
 10
0.0
 20
0.0
 30
0.0
  0
XRECORD
  5
162
102
{ACAD_REACTORS
330
149
102
}
330
149
100
AcDbXrecord
 10
0.0
 20
0.0
 30
0.0
  0
XRECORD
  5
15F
102
{ACAD_REACTORS
330
149
102
}
330
149
100
AcDbXrecord
340
0
  0
XRECORD
  5
160
102
{ACAD_REACTORS
330
149
102
}
330
149
100
AcDbXrecord
 70
     0
  0
XRECORD
  5
154
102
{ACAD_REACTORS
330
149
102
}
330
149
100
AcDbXrecord
  1
{FAEB1C32-E019-11D5-929B-00C0DF256EC4}
  0
ENDSEC
  0
EOF
